2 сезон

iTunes

MVO

1

2 сезон

iTunes

iTunes

1 сезон

RePack

30

Новинка

ВАЖНО

ИГРА 18+

pack

RePack

MK11
pack

Легкие деньги

RePack

jed

RePack

fifa19

RePack

RDR2

RePack

NEED FOR SPEED™ PAYBACK

4 сезон

9 сезон

Бесстыжие 9 сезон

Все сериалы

все сериалы на PB.wtf

RePack

FAR CRY 5

Anonymous, добрый вечер, мы не успеваем собрать деньги на оплату серверов за декабрь и январь, помогите нам пожалуйста в это трудное время. В качестве благодарности мы отключим Вам всю рекламу на сайте (укажите свой ник в строку Ваше имя)!

×
  
Magnet ссылка

Вулкан страстей / Eyjafjallajökull / Le volcan (Александр Коффре / Alexandre Coffre) [2013 г., Комедия, приключения, BDRip-AVC] DUB Лицензия pb.wtf

Вулкан страстей через торрент pb.wtf

Размер: 2.05 GB | Добавлен: 6 лет 7 мес. назад | Торрент скачан:1198 раз
Скачать  

24-06-2014 08:41 Вулкан страстей Скачать торрент  

Вулкан страстей / Eyjafjallajökull / Le volcan
Год выпуска: 2013
Страна: Франция, Бельгия / Canal+ [fr], Mars Films, TF1, Procirep, Ciné
Жанр: Комедия, приключения
Продолжительность: 01:31:53
Перевод: Дубляж [R5]
Субтитры: Русские, английские

Режиссер: Александр Коффре / Alexandre Coffre



В ролях: Валери Боннетон, Дэни Бун, Дени Меноше, Альберт Дельпи, Беранжер МакНис, Малик Бенталха, Констанс Долле, Мириам Азенкот, Арно Анриет, Ян Сортон

Описание: Где бы вы не хотели встретиться со своим бывшим? Только не в соседнем кресле самолета, чтобы пережить вместе длинный перелет. И уж точно не в одной машине, чтобы вопреки исландскому вулкану с непроизносимым названием, пересечь всю Европу. Когда вы страстно ненавидите друг друга, может случиться всякое. И угон самолета, и авария, и побег из полиции и даже… возвращение романтики.

Качество: BDRip-AVC
Формат: MKV
Видео кодек: H.264
Аудио кодек: AC3
Видео: 1032x432 (2,40:1), 24.000 fps, 2302 Кbps, 0.215 bit/pixel
Аудио#1: 48 kHz, AC3 Dolby Digital, 3/2 (L,C,R,l,r) + LFE ch, 448.00 kbps | RUS
Аудио#2: 48 kHz, AC3 Dolby Digital, 3/2 (L,C,R,l,r) + LFE ch, 448.00 kbps | FRE

Релиз группы:
Автор рипа: potroks

Общее
Уникальный идентификатор : 219314053781978029316576736553548304199 (0xA4FE59AFE8003DF9A16D4C17ECCACF47)
Полное имя : Vulkan.Strastey.2014.DUAL.BDRip.x264.-HELLYWOOD.mkv
Формат : Matroska
Версия формата : Version 4 / Version 2
Размер файла : 2,05 Гбайт
Продолжительность : 1 ч. 31 м.
Общий поток : 3200 Кбит/сек
Название фильма : HELLYWOOD - rip by potroks
Дата кодирования : UTC 2014-06-24 07:55:16
Программа кодирования : mkvmerge v5.9.0 ('On The Loose') built on Dec 15 2012 16:39:58
Библиотека кодирования : libebml v1.3.0 + libmatroska v1.4.0

Видео
Идентификатор : 1
Формат : AVC
Формат/Информация : Advanced Video Codec
Профиль формата : High@L4.1
Параметр CABAC формата : Да
Параметр ReFrames формата : 10 кадров
Идентификатор кодека : V_MPEG4/ISO/AVC
Продолжительность : 1 ч. 31 м.
Битрейт : 2302 Кбит/сек
Ширина : 1032 пикселя
Высота : 432 пикселя
Соотношение сторон : 2,40:1
Режим частоты кадров : Постоянный
Частота кадров : 24,000 кадра/сек
Цветовое пространство : YUV
Субдискретизация насыщенности : 4:2:0
Битовая глубина : 8 бит
Тип развёртки : Прогрессивная
Бит/(Пиксели*Кадры) : 0.215
Размер потока : 1,44 Гбайт (70%)
Заголовок : Eyjafjallajökull / Le volcan
Библиотека кодирования : x264 core 130 r2273 b3065e6
Настройки программы : cabac=1 / ref=10 / deblock=1:-2:-2 / analyse=0x3:0x133 / me=umh / subme=11 / psy=1 / psy_rd=1.05:0.00 / mixed_ref=1 / me_range=48 / chroma_me=1 / trellis=2 / 8x8dct=1 / cqm=0 / deadzone=21,11 / fast_pskip=0 / chroma_qp_offset=-2 / threads=9 / lookahead_threads=2 / sliced_threads=0 / nr=0 / decimate=0 / interlaced=0 / bluray_compat=0 / constrained_intra=0 / bframes=11 / b_pyramid=2 / b_adapt=2 / b_bias=0 / direct=3 / weightb=1 / open_gop=0 / weightp=2 / keyint=250 / keyint_min=23 / scenecut=40 / intra_refresh=0 / rc_lookahead=60 / rc=2pass / mbtree=0 / bitrate=2302 / ratetol=1.0 / qcomp=0.70 / qpmin=0 / qpmax=69 / qpstep=4 / cplxblur=20.0 / qblur=0.5 / vbv_maxrate=50000 / vbv_bufsize=62500 / nal_hrd=none / ip_ratio=1.35 / pb_ratio=1.25 / aq=1:0.80
Язык : English
Default : Да
Forced : Нет

Аудио #1
Идентификатор : 2
Формат : AC-3
Формат/Информация : Audio Coding 3
Расширение режима : CM (complete main)
Параметр Endianness формата : Big
Идентификатор кодека : A_AC3
Продолжительность : 1 ч. 31 м.
Вид битрейта : Постоянный
Битрейт : 448 Кбит/сек
Каналы : 6 каналов
Расположение каналов : Front: L C R, Side: L R, LFE
Частота : 48,0 КГц
Битовая глубина : 16 бит
Метод сжатия : С потерями
Размер потока : 294 Мбайт (14%)
Заголовок : Dub | DD 5.1 @ 448 kbps - R5
Язык : Russian
Default : Да
Forced : Да

Аудио #2
Идентификатор : 3
Формат : AC-3
Формат/Информация : Audio Coding 3
Расширение режима : CM (complete main)
Параметр Endianness формата : Big
Идентификатор кодека : A_AC3
Продолжительность : 1 ч. 31 м.
Вид битрейта : Постоянный
Битрейт : 448 Кбит/сек
Каналы : 6 каналов
Расположение каналов : Front: L C R, Side: L R, LFE
Частота : 48,0 КГц
Битовая глубина : 16 бит
Метод сжатия : С потерями
Размер потока : 294 Мбайт (14%)
Заголовок : Original | DD 5.1 @ 448 kbps
Язык : French
Default : Нет
Forced : Нет

Текст #1
Идентификатор : 4
Формат : UTF-8
Идентификатор кодека : S_TEXT/UTF8
Идентификатор кодека/Информация : UTF-8 Plain Text
Язык : Russian
Default : Нет
Forced : Нет

Текст #2
Идентификатор : 5
Формат : UTF-8
Идентификатор кодека : S_TEXT/UTF8
Идентификатор кодека/Информация : UTF-8 Plain Text
Язык : English
Default : Нет
Forced : Нет

Меню
00:00:00.000 : en:(01)00:00:00:000
00:06:30.500 : en:(02)00:06:30:500
00:15:49.916 : en:(03)00:15:49:916
00:22:09.541 : en:(04)00:22:09:541
00:31:07.166 : en:(05)00:31:07:166
00:38:02.500 : en:(06)00:38:02:500
00:44:55.125 : en:(07)00:44:55:125
00:53:15.541 : en:(08)00:53:15:541
01:02:37.541 : en:(09)01:02:37:541
01:07:48.208 : en:(10)01:07:48:208
01:17:01.082 : en:(11)01:17:01:082
01:26:40.707 : en:(12)01:26:40:707
01:31:53.000 : en:(13)01:31:53:000

pb.wtf



Скачать Вулкан страстей через торрент http://pic.kartinco.top/new/img/2014-06/24/cbp2vitdisqusdlxp6qxadcpu.png Скачать фильм Вулкан страстей через торрент бесплантно в хорошем качестве Описание: Где бы вы не хотели встретиться со своим бывшим? Только не в соседнем кресле самолета, чтобы пережить вместе длинный перелет. И ... 9 10 18
Info! Золотая раздача, скачанное не засчитывается.
Торрент: Зарегистрирован [2014-06-24 08:41] · скачан: 1 198 раз
Статус: √ проверено
Размер: 2.05 GB
Как cкачать? Как скачать Вулкан страстей через торрент | UTorrent

28-11-2019 20:33  

Отключить всю рекламу на сайте

    Дорогой пользователь! Огромная просьба, поблагодарите релизера, оцените раздачу и оставьте свои комментарий, если Вы скачали Вулкан страстей через торрент бесплатно! Внесите свою лепту в развитие PiratBit!
    Комментировать посты могут только пользователи прошедшие не сложную регистрацию
    Показать сообщения:    

    Вулкан страстей через торрент
    Скачать бесплатно Вулкан страстей
    Вулкан страстей скачать торрент
    Вулкан страстей смотреть онлайн
    Cкачать фильм Вулкан страстей бесплатно
    Вулкан страстей скачать торрент в хорошем качестве
    Вулкан страстей смотреть онлайн бесплатно в хорошем качестве


    Вы не можете начинать темы
    Вы не можете отвечать на сообщения
    Вы не можете редактировать свои сообщения
    Вы не можете удалять свои сообщения
    Вы не можете голосовать в опросах
    Вы не можете прикреплять файлы к сообщениям
    Вы можете скачивать файлы