Ссылка на приватное зеркало нашего сайта всего за 1$. Внимание количество ограничено!!!

2 сезон

iTunes

1 сезон

1

iTunes

iTunes

iTunes

1 сезон

RePack

30

ИГРА 18+

pack

ВАЖНО

!!Акция!!

Alien_RageХит недели

RePack

MK11
pack

Забери бонус

RePack

jed

!!Акция!!

Alien_Rage

RePack

fifa19

RePack

Assassins Creed: Odyssey

RePack

NEED FOR SPEED™ PAYBACK

4 сезон

9 сезон

Бесстыжие 9 сезон

Все сериалы

все сериалы на PB.wtf

RePack

FAR CRY 5
  

Взгляд зимы / Cold Comes the Night (Це Чун / Tze Chun) [2013, США, триллер, драма, криминал, BDRip 1080p, Многоголосый, закадровый [Лицензия] pb.wtf

Взгляд зимы через торрент pb.wtf

Размер: 8.41 GB | Добавлен: 6 лет 3 мес. назад | Торрент скачан:156 раз
Скачать  

24-06-2014 09:57 Взгляд зимы Скачать торрент  

Взгляд зимы / Cold Comes the Night
«Sometimes the fight of your life comes in the dead of night»

Год выпуска: 2013
Страна: США
Жанр:триллер, драма, криминал
Продолжительность:01:30:27
Перевод:Многоголосый, закадровый [Лицензия](iTunes Russia)

Субтитры: русские (notabenoid), английские,
Режиссер:Це Чун / Tze Chun

  • В ролях:

    Элис Ив (Chloe), Брайан Крэнстон (Topo), Логан Маршалл-Грин (Billy), Урсула Паркер (Sophia), Лео Фицпатрик (Donnie), Эрин Каммингс (Amber), Робин Тейлор (Quincy), Сара Соколович (Gwen), Марселин Хьюго (Denise), Стивен Шеффер (Jacques), Роберт Прескотт (Detective McKenney), Эшли Эткинсон (Social Worker)

  • Описание:
    Пытающаяся справиться с трудностями владелица отеля и ее дочь захвачены в заложники почти слепым профессиональным преступником, чтобы они были его глазами, когда он попытается вернуть свои деньги у грязного полицейского.

  • Мировая премьера:20 сентября 2013


      Качество:BDRip 1080p
      Формат: MKV
      Видео кодек: AVC
      Аудио кодек:AC3/DTS
      Видео: AVC, 1920x1080 (16:9), 11031 kbps, 23,976 fps, 0,222 bpp
      Аудио №1: русский / AC3 / 5.1 / 48 kHz / 384 kbps / 16 bit || MVO (iTunes Russia)
      Аудио №2: русский / AC3 / 2.0 / 48 kHz / 192 kbps / 16 bit || VO [den904]
      Аудио №3: русский / AC3 / 2.0 / 48 kHz / 192 kbps / 16 bit || VO [ХихиДок]
      Аудио №4: английский / DTS / 5.1 / 48 kHz / 1510 kbps / 24 bit
      Навигация по главам: есть


    Код:

    General
    Unique ID                                : 175410784901974255601184359162985952483 (0x83F6E3690346717AAD192B5A6601B4E3)
    Complete name                            : D:\Торенты\Cold.Comes.the.Night.2013.Blu.Ray.1080p.CINEMANIA.mkv
    Format                                   : Matroska
    Format version                           : Version 4 / Version 2
    File size                                : 8.41 GiB
    Duration                                 : 1h 30mn
    Overall bit rate                         : 13.3 Mbps
    Movie name                               : Release Group CINEMANIA
    Encoded date                             : UTC 2014-06-01 18:46:07
    Writing application                      : mkvmerge v6.9.1 ('Blue Panther') 64bit built on Apr 18 2014 18:23:38
    Writing library                          : libebml v1.3.0 + libmatroska v1.4.1

    Video
    ID                                       : 1
    Format                                   : AVC
    Format/Info                              : Advanced Video Codec
    Format profile                           : High@L4.1
    Format settings, CABAC                   : Yes
    Format settings, ReFrames                : 4 frames
    Codec ID                                 : V_MPEG4/ISO/AVC
    Duration                                 : 1h 30mn
    Bit rate                                 : 11.0 Mbps
    Width                                    : 1 920 pixels
    Height                                   : 1 080 pixels
    Display aspect ratio                     : 16:9
    Frame rate                               : 23.976 fps
    Color space                              : YUV
    Chroma subsampling                       : 4:2:0
    Bit depth                                : 8 bits
    Scan type                                : Progressive
    Bits/(Pixel*Frame)                       : 0.222
    Stream size                              : 6.80 GiB (81%)
    Title                                    : Release Group CINEMANIA
    Writing library                          : x264 core 138 r2356 a1d3d17
    Encoding settings                        : cabac=1 / ref=4 / deblock=1:-3:-3 / analyse=0x3:0x113 / me=umh / subme=10 / psy=1 / psy_rd=1.00:0.05 / mixed_ref=1 / me_range=32 / chroma_me=1 / trellis=2 / 8x8dct=1 / cqm=0 / deadzone=21,11 / fast_pskip=0 / chroma_qp_offset=-2 / threads=18 / lookahead_threads=1 / sliced_threads=0 / nr=0 / decimate=1 / interlaced=0 / bluray_compat=0 / constrained_intra=0 / bframes=6 / b_pyramid=2 / b_adapt=2 / b_bias=0 / direct=3 / weightb=1 / open_gop=0 / weightp=2 / keyint=250 / keyint_min=23 / scenecut=40 / intra_refresh=0 / rc=2pass / mbtree=0 / bitrate=11031 / ratetol=1.0 / qcomp=0.70 / qpmin=0 / qpmax=69 / qpstep=4 / cplxblur=20.0 / qblur=0.5 / ip_ratio=1.40 / pb_ratio=1.30 / aq=2:0.90
    Language                                 : English
    Default                                  : Yes
    Forced                                   : No

    Audio #1
    ID                                       : 2
    Format                                   : AC-3
    Format/Info                              : Audio Coding 3
    Mode extension                           : CM (complete main)
    Codec ID                                 : A_AC3
    Duration                                 : 1h 30mn
    Bit rate mode                            : Constant
    Bit rate                                 : 384 Kbps
    Channel(s)                               : 6 channels
    Channel positions                        : Front: L C R, Side: L R, LFE
    Sampling rate                            : 48.0 KHz
    Bit depth                                : 16 bits
    Compression mode                         : Lossy
    Stream size                              : 248 MiB (3%)
    Title                                    : Лицензия
    Language                                 : Russian
    Default                                  : Yes
    Forced                                   : Yes

    Audio #2
    ID                                       : 3
    Format                                   : AC-3
    Format/Info                              : Audio Coding 3
    Mode extension                           : CM (complete main)
    Codec ID                                 : A_AC3
    Duration                                 : 1h 30mn
    Bit rate mode                            : Constant
    Bit rate                                 : 192 Kbps
    Channel(s)                               : 2 channels
    Channel positions                        : Front: L R
    Sampling rate                            : 48.0 KHz
    Bit depth                                : 16 bits
    Compression mode                         : Lossy
    Stream size                              : 124 MiB (1%)
    Title                                    : den904
    Language                                 : Russian
    Default                                  : No
    Forced                                   : No

    Audio #3
    ID                                       : 4
    Format                                   : AC-3
    Format/Info                              : Audio Coding 3
    Mode extension                           : CM (complete main)
    Codec ID                                 : A_AC3
    Duration                                 : 1h 30mn
    Bit rate mode                            : Constant
    Bit rate                                 : 192 Kbps
    Channel(s)                               : 2 channels
    Channel positions                        : Front: L R
    Sampling rate                            : 48.0 KHz
    Bit depth                                : 16 bits
    Compression mode                         : Lossy
    Stream size                              : 124 MiB (1%)
    Title                                    : ХихиДок
    Language                                 : Russian
    Default                                  : No
    Forced                                   : No

    Audio #4
    ID                                       : 5
    Format                                   : DTS
    Format/Info                              : Digital Theater Systems
    Codec ID                                 : A_DTS
    Duration                                 : 1h 30mn
    Bit rate mode                            : Constant
    Bit rate                                 : 1 510 Kbps
    Channel(s)                               : 6 channels
    Channel positions                        : Front: L C R, Side: L R, LFE
    Sampling rate                            : 48.0 KHz
    Bit depth                                : 24 bits
    Compression mode                         : Lossy
    Stream size                              : 977 MiB (11%)
    Language                                 : English
    Default                                  : No
    Forced                                   : No

    Text #1
    ID                                       : 6
    Format                                   : UTF-8
    Codec ID                                 : S_TEXT/UTF8
    Codec ID/Info                            : UTF-8 Plain Text
    Title                                    : notabenoid
    Language                                 : Russian
    Default                                  : No
    Forced                                   : No

    Text #2
    ID                                       : 7
    Format                                   : UTF-8
    Codec ID                                 : S_TEXT/UTF8
    Codec ID/Info                            : UTF-8 Plain Text
    Language                                 : English
    Default                                  : No
    Forced                                   : No

    Menu
    00:00:00.000                             : en:00:00:00.000
    00:06:12.956                             : en:00:06:12.956
    00:09:53.718                             : en:00:09:53.718
    00:11:29.856                             : en:00:11:29.856
    00:17:59.370                             : en:00:17:59.370
    00:24:12.368                             : en:00:24:12.368
    00:27:10.087                             : en:00:27:10.087
    00:32:03.839                             : en:00:32:03.839
    00:37:40.467                             : en:00:37:40.467
    00:42:18.661                             : en:00:42:18.661
    00:46:12.019                             : en:00:46:12.019
    00:51:01.767                             : en:00:51:01.767
    00:56:27.342                             : en:00:56:27.342
    01:04:35.997                             : en:01:04:35.997
    01:07:37.512                             : en:01:07:37.512
    01:15:16.721                             : en:01:15:16.721

    Скриншоты:
    скриншот   скриншот   скриншот  

    Каталог Новинок (Фильмы-трейлеры, Игры, Сериалы, Мультфильмы)
    pb.wtf



  • Скачать Взгляд зимы через торрент http://i61.fastpic.ru/big/2014/0624/5f/7f5bda8710ea6937525960579421365f.jpg Скачать фильм Взгляд зимы через торрент бесплантно в хорошем качестве Описание:Пытающаяся справиться с трудностями владелица отеля и ее дочь захвачены в заложники почти слепым профессиональным преступником, ... 8.9 10 9
    Info! Золотая раздача, скачанное не засчитывается.
    Торрент: Зарегистрирован [2014-06-24 09:57] · скачан: 156 раз
    Статус: √ проверено
    Размер: 8.41 GB
    Как cкачать? Как скачать Взгляд зимы через торрент | qTorrent

    % Раздел Тема Автор DL S | L
    Фильмы 2013 [DVDrip, WEB-DLRip, HDrip] [ 1.37 GB ] Взгляд зимы / Cold Comes the Night [2013 HDRip [] Ворон Скачать
    1 | 0

    28-11-2019 20:33  

    Отключить всю рекламу на сайте

      Дорогой пользователь! Огромная просьба, поблагодарите релизера, оцените раздачу и оставьте свои комментарий, если Вы скачали Взгляд зимы через торрент бесплатно! Внесите свою лепту в развитие PiratBit!
      Комментировать посты могут только пользователи прошедшие не сложную регистрацию
      Показать сообщения:    

      Взгляд зимы через торрент
      Скачать бесплатно Взгляд зимы
      Взгляд зимы скачать торрент
      Взгляд зимы смотреть онлайн
      Cкачать фильм Взгляд зимы бесплатно
      Взгляд зимы скачать торрент в хорошем качестве
      Взгляд зимы смотреть онлайн бесплатно в хорошем качестве


      Вы не можете начинать темы
      Вы не можете отвечать на сообщения
      Вы не можете редактировать свои сообщения
      Вы не можете удалять свои сообщения
      Вы не можете голосовать в опросах
      Вы не можете прикреплять файлы к сообщениям
      Вы можете скачивать файлы