2 сезон

iTunes

MVO

1

2 сезон

iTunes

iTunes

1 сезон

RePack

30

Ultimate

ВАЖНО

ИГРА 18+

pack

RePack

MK11
pack

Легкие деньги

RePack

jed

RePack

fifa19

RePack

RDR2

RePack

NEED FOR SPEED™ PAYBACK

4 сезон

9 сезон

Бесстыжие 9 сезон

Все сериалы

все сериалы на PB.wtf

RePack

FAR CRY 5

Anonymous, доброе утро, мы не успеваем собрать деньги на оплату серверов за декабрь и январь, помогите нам пожалуйста в это трудное время. В качестве благодарности мы отключим Вам всю рекламу на сайте (укажите свой ник в строку Ваше имя)!

×
  
Magnet ссылка

Прошлое / Le passé / The Past (Асгар Фархади / Asghar Farhadi) [2013 г., Драма, детектив, BDRip-AVC] MVO pb.wtf

Прошлое через торрент pb.wtf

Размер: 2.22 GB | Добавлен: 6 лет 6 мес. назад | Торрент скачан:220 раз
Скачать  

24-06-2014 14:44 Прошлое Скачать торрент  

Прошлое / Le passé / The Past
Год выпуска: 2013
Страна: Франция, Италия / Canal+ [fr], France Télévisions, Memento Films Distribution, BIM Distribuzione...
Жанр: Драма, детектив
Продолжительность: 02:10:22
Перевод: Профессиональный многоголосый [iTunes]
Субтитры: Русские, английские

Режиссер: Асгар Фархади / Asghar Farhadi



В ролях: Беренис Бежо, Тахар Рахим, Али Мосаффа, Полин Бурле, Элиэ Аги, Джинн Джестин, Сабрина Уазани, Бабак Карими, Валерия Кавалли, Александра Клебанска

Описание: Ахмад и его французская жена четыре года живут врозь. По просьбе Мари герой приезжает в Париж из Тегерана, чтобы уладить формальности, связанные с их разводом. Во время своего короткого визита Ахмад наблюдает постоянные ссоры жены и их дочери Люси. Его попытка уладить их отношения открывает секрет из прошлого…

Качество: BDRip-AVC
Формат: MKV
Видео кодек: H.264
Аудио кодек: AC3
Видео: 1012x546 (1,85:1), 23,976 fps, 1611 Кbps, 0.122 bit/pixel
Аудио#1: 48 kHz, AC3 Dolby Digital, 3/2 (L,C,R,l,r) + LFE ch, 384.00 kbps | RUS
Аудио#2: 48 kHz, AC3 Dolby Digital, 3/2 (L,C,R,l,r) + LFE ch, 448.00 kbps | FRE

Релиз группы:
Автор рипа: potroks

Общее
Уникальный идентификатор : 231053010407058623888190499753014692264 (0xADD330EF199BD4ABB718688D587D89A8)
Полное имя : Proshloje.2013.DUAL.BDRip.x264.-HELLYWOOD.mkv
Формат : Matroska
Версия формата : Version 4 / Version 2
Размер файла : 2,22 Гбайт
Продолжительность : 2 ч. 10 м.
Общий поток : 2441 Кбит/сек
Название фильма : HELLYWOOD - rip by potroks
Дата кодирования : UTC 2014-06-24 14:20:12
Программа кодирования : mkvmerge v5.9.0 ('On The Loose') built on Dec 15 2012 16:39:58
Библиотека кодирования : libebml v1.3.0 + libmatroska v1.4.0

Видео
Идентификатор : 1
Формат : AVC
Формат/Информация : Advanced Video Codec
Профиль формата : High@L4.1
Параметр CABAC формата : Да
Параметр ReFrames формата : 13 кадров
Идентификатор кодека : V_MPEG4/ISO/AVC
Продолжительность : 2 ч. 10 м.
Битрейт : 1611 Кбит/сек
Ширина : 1012 пикселей
Высота : 546 пикселей
Соотношение сторон : 1,85:1
Режим частоты кадров : Постоянный
Частота кадров : 23,976 кадра/сек
Цветовое пространство : YUV
Субдискретизация насыщенности : 4:2:0
Битовая глубина : 8 бит
Тип развёртки : Прогрессивная
Бит/(Пиксели*Кадры) : 0.122
Размер потока : 1,42 Гбайт (64%)
Заголовок : The Past / Le passé
Библиотека кодирования : x264 core 130 r2273 b3065e6
Настройки программы : cabac=1 / ref=13 / deblock=1:-2:-2 / analyse=0x3:0x133 / me=umh / subme=11 / psy=1 / psy_rd=1.02:0.00 / mixed_ref=1 / me_range=48 / chroma_me=1 / trellis=2 / 8x8dct=1 / cqm=0 / deadzone=21,11 / fast_pskip=0 / chroma_qp_offset=-2 / threads=9 / lookahead_threads=6 / sliced_threads=0 / nr=0 / decimate=0 / interlaced=0 / bluray_compat=0 / constrained_intra=0 / bframes=14 / b_pyramid=2 / b_adapt=2 / b_bias=0 / direct=3 / weightb=1 / open_gop=0 / weightp=2 / keyint=250 / keyint_min=23 / scenecut=40 / intra_refresh=0 / rc_lookahead=60 / rc=2pass / mbtree=0 / bitrate=1611 / ratetol=1.0 / qcomp=0.70 / qpmin=0 / qpmax=69 / qpstep=4 / cplxblur=20.0 / qblur=0.5 / vbv_maxrate=20000 / vbv_bufsize=20000 / nal_hrd=none / ip_ratio=1.35 / pb_ratio=1.25 / aq=1:1.00
Язык : French
Default : Да
Forced : Нет

Аудио #1
Идентификатор : 2
Формат : AC-3
Формат/Информация : Audio Coding 3
Расширение режима : CM (complete main)
Параметр Endianness формата : Big
Идентификатор кодека : A_AC3
Продолжительность : 2 ч. 10 м.
Вид битрейта : Постоянный
Битрейт : 384 Кбит/сек
Каналы : 6 каналов
Расположение каналов : Front: L C R, Side: L R, LFE
Частота : 48,0 КГц
Битовая глубина : 16 бит
Метод сжатия : С потерями
Размер потока : 358 Мбайт (16%)
Заголовок : MVO | DD 5.1 @ 384 kbps - iTunes
Язык : Russian
Default : Да
Forced : Нет

Аудио #2
Идентификатор : 3
Формат : AC-3
Формат/Информация : Audio Coding 3
Расширение режима : CM (complete main)
Параметр Endianness формата : Big
Идентификатор кодека : A_AC3
Продолжительность : 2 ч. 10 м.
Вид битрейта : Постоянный
Битрейт : 448 Кбит/сек
Каналы : 6 каналов
Расположение каналов : Front: L C R, Side: L R, LFE
Частота : 48,0 КГц
Битовая глубина : 16 бит
Метод сжатия : С потерями
Размер потока : 418 Мбайт (18%)
Заголовок : Original | DD 5.1 @ 448 kbps
Язык : French
Default : Нет
Forced : Нет

Текст #1
Идентификатор : 4
Формат : UTF-8
Идентификатор кодека : S_TEXT/UTF8
Идентификатор кодека/Информация : UTF-8 Plain Text
Язык : Russian
Default : Нет
Forced : Нет

Текст #2
Идентификатор : 5
Формат : UTF-8
Идентификатор кодека : S_TEXT/UTF8
Идентификатор кодека/Информация : UTF-8 Plain Text
Язык : English
Default : Нет
Forced : Нет

Меню
00:00:00.000 : en:(01)00:00:00:000
00:07:27.614 : en:(02)00:07:27:614
00:23:00.003 : en:(03)00:23:00:003
00:34:32.570 : en:(04)00:34:32:570
00:45:07.038 : en:(05)00:45:07:038
00:51:52.776 : en:(06)00:51:52:776
01:03:36.938 : en:(07)01:03:36:938
01:10:58.880 : en:(08)01:10:58:880
01:23:11.820 : en:(09)01:23:11:820
01:33:30.104 : en:(10)01:33:30:104
01:43:47.471 : en:(11)01:43:47:471
01:57:51.731 : en:(12)01:57:51:731
02:07:36.858 : en:(13)02:07:36:858

pb.wtf



Скачать Прошлое через торрент http://pic.kartinco.top/new/img/2014-06/24/685s2kg4u5o1z7jnmav7fg3q6.png Скачать фильм Прошлое через торрент бесплантно в хорошем качестве Описание: Ахмад и его французская жена четыре года живут врозь. По просьбе Мари герой приезжает в Париж из Тегерана, чтобы уладить ... 10 10 7
Info! Золотая раздача, скачанное не засчитывается.
Торрент: Зарегистрирован [2014-06-24 14:44] · скачан: 220 раз
Статус: √ проверено
Размер: 2.22 GB
Как cкачать? Как скачать Прошлое через торрент | UTorrent

28-11-2019 20:33  

Отключить всю рекламу на сайте

24-06-2014 14:57 Прошлое Скачать торрент  

первый :sarcastic_blum:pb.wtf



24-06-2014 17:28 Прошлое Скачать торрент  

weber06 писал(а):

первый :sarcastic_blum:

В очереди за хлебом что ли????pb.wtf



    Дорогой пользователь! Огромная просьба, поблагодарите релизера, оцените раздачу и оставьте свои комментарий, если Вы скачали Прошлое через торрент бесплатно! Внесите свою лепту в развитие PiratBit!
    Комментировать посты могут только пользователи прошедшие не сложную регистрацию
    Показать сообщения:    

    Прошлое через торрент
    Скачать бесплатно Прошлое
    Прошлое скачать торрент
    Прошлое смотреть онлайн
    Cкачать фильм Прошлое бесплатно
    Прошлое скачать торрент в хорошем качестве
    Прошлое смотреть онлайн бесплатно в хорошем качестве


    Вы не можете начинать темы
    Вы не можете отвечать на сообщения
    Вы не можете редактировать свои сообщения
    Вы не можете удалять свои сообщения
    Вы не можете голосовать в опросах
    Вы не можете прикреплять файлы к сообщениям
    Вы можете скачивать файлы