Ссылка на приватное зеркало всего за 1$. Внимание количество ограничено!!!

iTunes

1+1

iTunes

мы

WEB-DL

1

iTunes

Чернобыль

iTunes

Ральф против интернета

Лицензия

ПШазам

Лицензия

Оно 2

Лицензия

30
pack

Вам бонус

ВАЖНО

!!Акция!!

Alien_RageХит недели

RePack

Resident Evil 21

ИГРА 18+

pack

RePack

jed

!!Акция!!

Alien_Rage

RePack

fifa19

RePack

Assassins Creed: Odyssey

RePack

NEED FOR SPEED™ PAYBACK

3 сезон

9 сезон

Бесстыжие 9 сезон

Все сериалы

все сериалы на PB.wtf

RePack

FAR CRY 5
Ребята, катастрофически не хватает 1900р. для оплаты серверов за Октябрь (всвязи с блокировками трафик упал в 3 раза), 1-2р., выручайте.
  

Навязчивые ритмы / Cadences obstinées (Фанни Ардан / Fanny Ardant) [2013, Франция, Португалия, мелодрама, WEB-DLRip, Многоголосый, закадровый] pb.wtf

Навязчивые ритмы через торрент pb.wtf

Размер: 1.37 GB | Добавлен: 5 лет 5 мес. назад | Торрент скачан:83 раза
Скачать  

25-06-2014 14:08 Навязчивые ритмы Скачать торрент  

Навязчивые ритмы / Cadences obstinées


Год выпуска: 2013
Страна: Франция, Португалия
Жанр:мелодрама
Продолжительность:01:37:30
Перевод:Многоголосый, закадровый

Субтитры: Нет
Режиссер:Фанни Ардан / Fanny Ardant

  • В ролях:

    Азия Ардженто (Margo), Нуно Лопес (Furio), Франко Неро (Carmine), Тудор Истодор (Gabriel), Рикардо Перейра (Mattia), Йохан Лейзен (Wladimir), Жерар Депардье (Père Villedieu), Мика (Lucio, le pianiste), Лаура Соверал (Mère Carmine), Андре Гомес (Commanditaire), Марселло Уржеги (L'agent de Margo), Филипп Леру (L'inspecteur)

  • Описание:
    Марго отказалась от блестящей музыкальной карьеры ради отношений с Фурио, и теперь старается сохранить то, что осталось от их прежней любви. Одновременно с этим ее возлюбленный Фурио пытается закончить реставрацию старинного дворца, но задача оказывается невыполнимой из-за бесконечных преград, возникающих на его пути.

  • Мировая премьера:17 ноября 2013


      Качество: WEB-DLRip
      Формат: AVI
      Видео кодек: XviD
      Аудио кодек:AC3
      Видео: XviD, 720x304 (2.35:1), 1803 kbps, 25 fps, 0,330 bpp
      Аудио: AC3 / 2.0 / 44 kHz / 192 kbps / 16 bit


    Код:

    General
    Complete name                            : D:\Торенты\Naviazchivie.ritmy.2013.P.WEB-DLRip.1400Mb.avi
    Format                                   : AVI
    Format/Info                              : Audio Video Interleave
    File size                                : 1.37 GiB
    Duration                                 : 1h 37mn
    Overall bit rate                         : 2 005 Kbps
    Writing application                      : VirtualDubMod 1.5.10.2 (build 2540/release)
    Writing library                          : VirtualDubMod build 2540/release

    Video
    ID                                       : 0
    Format                                   : MPEG-4 Visual
    Format profile                           : Advanced Simple@L5
    Format settings, BVOP                    : 2
    Format settings, QPel                    : No
    Format settings, GMC                     : No warppoints
    Format settings, Matrix                  : Custom
    Codec ID                                 : XVID
    Codec ID/Hint                            : XviD
    Duration                                 : 1h 37mn
    Bit rate                                 : 1 804 Kbps
    Width                                    : 720 pixels
    Height                                   : 304 pixels
    Display aspect ratio                     : 2.35:1
    Frame rate                               : 25.000 fps
    Color space                              : YUV
    Chroma subsampling                       : 4:2:0
    Bit depth                                : 8 bits
    Scan type                                : Progressive
    Compression mode                         : Lossy
    Bits/(Pixel*Frame)                       : 0.330
    Stream size                              : 1.23 GiB (90%)
    Writing library                          : XviD 1.2.1 (UTC 2008-12-04)

    Audio
    ID                                       : 1
    Format                                   : AC-3
    Format/Info                              : Audio Coding 3
    Mode extension                           : CM (complete main)
    Codec ID                                 : 2000
    Duration                                 : 1h 37mn
    Bit rate mode                            : Constant
    Bit rate                                 : 192 Kbps
    Channel(s)                               : 2 channels
    Channel positions                        : Front: L R
    Sampling rate                            : 44.1 KHz
    Bit depth                                : 16 bits
    Compression mode                         : Lossy
    Stream size                              : 134 MiB (10%)
    Alignment                                : Split accross interleaves
    Interleave, duration                     : 40 ms (1.00 video frame)
    Interleave, preload duration             : 500 ms

    Скриншоты:

    Каталог Новинок (Фильмы-трейлеры, Игры, Сериалы, Мультфильмы)

    © Оформление by Raven
    pb.wtf



  • Скачать Навязчивые ритмы через торрент http://i61.fastpic.ru/big/2014/0625/26/5d81ec0f53660b13f0f5130249f72926.jpg Скачать фильм Навязчивые ритмы через торрент бесплантно в хорошем качестве Описание:Марго отказалась от блестящей музыкальной карьеры ради отношений с Фурио, и теперь старается сохранить то, что осталось от их ... 9.7 10 3
    Торрент: Зарегистрирован [2014-06-25 14:08] · скачан: 83 раз
    Статус: T временная
    Размер: 1.37 GB
    Как cкачать? Как скачать Навязчивые ритмы через торрент | qTorrent

    28-11-2019 20:33  

    Отключить всю рекламу на сайте

      Дорогой пользователь! Огромная просьба, поблагодарите релизера, оцените раздачу и оставьте свои комментарий, если Вы скачали Навязчивые ритмы через торрент бесплатно! Внесите свою лепту в развитие PiratBit!
      Комментировать посты могут только пользователи прошедшие не сложную регистрацию
      Показать сообщения:    

      Навязчивые ритмы через торрент
      Скачать бесплатно Навязчивые ритмы
      Навязчивые ритмы скачать торрент
      Навязчивые ритмы смотреть онлайн
      Cкачать фильм Навязчивые ритмы бесплатно
      Навязчивые ритмы скачать торрент в хорошем качестве
      Навязчивые ритмы смотреть онлайн бесплатно в хорошем качестве


      Вы не можете начинать темы
      Вы не можете отвечать на сообщения
      Вы не можете редактировать свои сообщения
      Вы не можете удалять свои сообщения
      Вы не можете голосовать в опросах
      Вы не можете прикреплять файлы к сообщениям
      Вы можете скачивать файлы