Архив 81

1 сезон

Добыча

Дубляж

Тед Лассо

3 сезон

Тор

1 сезон

13 клиническая

3 сезон

Жестокая ночь

Дубляж

Одни из нас

1s 9e

Premium

Premium

Deluxe

Deluxe

pack

Рекомендуем

30

Repack

ВАЖНО

ВАЖНО

Ghostwire

Пиратка

jed

RePack

nioh2

RePack

RDR2

RePack

NEED FOR SPEED™ PAYBACK

RePack

скачать торрент

Кинопоиск HD

Острые козырьки 6 сезон

6 сезон

FAR CRY 6

RePack

скачать торрент

Лицензия

скачать торрент

MVO

1

1 сезон

скачать торрент

1 сезон

скачать торрент

Лицензия

  

300 спартанцев: Расцвет империи / 300: Rise of an Empire (Ноам Мурро / Noam Murro) [2014, США, фэнтези, боевик, драма, BDRip, Дубляж - [Лицензия «Blu-Ray CEE»]

300 спартанцев: Расцвет империи через торрент pb.wtf

Размер: 2.19 GB | Добавлен: 8 лет 8 мес. назад | Торрент скачан:766 раз
Смотреть онлайн | Скачать | Поддержите нас   

26-06-2014 16:59 300 спартанцев: Расцвет империи Скачать торрент  

300 спартанцев: Расцвет империи / 300: Rise of an Empire
«Смерти вопреки»

Год выпуска: 2014
Страна: США
Жанр:фэнтези, боевик, драма, военный
Продолжительность:01:42:35
Перевод:Дубляж - [Лицензия «Blu-Ray CEE»]

Субтитры: Нет
Режиссер:Ноам Мурро / Noam Murro

  • В ролях:

    Салливан Степлтон (Themistocles), Ева Грин (Artemisia), Джек О’Коннелл (Calisto), Каллэн Мулвей (Scyllias), Ганс Мэтисон (Aeskylos), Родриго Санторо (Xerxes), Лина Хиди (Queen Gorgo), Дэвид Уэнэм (Dilios), Эндрю Тирнан (Ephialtes), Эндрю Плевин (Daxos), Игал Наор (King Darius), Питер Менса (Persian Emissary)

  • Описание:
    После победы над царем Леонидом персидская армия во главе с Ксерксом движется на юг. На её пути оказывается флот Афин под руководством адмирала Фемистокла. Силы противников не равны, и Фемистокл вынужден вступить в союз с заклятым врагом афинского государства Спартой. Только объединившись у враждующих полисов-государств есть шанс что-то противопоставить могущественному Ксерксу.

  • Мировая премьера:5 марта 2014


      Качество: BDRip
      Формат: AVI
      Видео кодек: XviD
      Аудио кодек:AC3
      Видео: XviD, 720x304 (2.35:1), 2140 kbps, 23,976 fps, 0,408 bpp
      Аудио №1: AC3 / 5.1 / 48 kHz / 448 kbps / 16 bit /RUS
      Аудио №2: AC3 / 5.1 / 48 kHz / 448 kbps / 16 bit / ENG

    Код:

    General
    Complete name                            : D:\Торенты\300 Rise of an Empire (2014) BDRip.avi
    Format                                   : AVI
    Format/Info                              : Audio Video Interleave
    Format profile                           : OpenDML
    File size                                : 2.19 GiB
    Duration                                 : 1h 42mn
    Overall bit rate                         : 3 054 Kbps

    Director                                 : Rensler
    Genre                                    : Боевик / Драма / Военный
    Writing application                      : VirtualDubModRus 1.5.10.2 (build 2542/release)
    Writing library                          : VirtualDubMod build 2542/release

    Video
    ID                                       : 0
    Format                                   : MPEG-4 Visual
    Format profile                           : Advanced [email protected]
    Format settings, BVOP                    : 2
    Format settings, QPel                    : No
    Format settings, GMC                     : No warppoints
    Format settings, Matrix                  : Custom
    Codec ID                                 : XVID
    Codec ID/Hint                            : XviD
    Duration                                 : 1h 42mn
    Bit rate                                 : 2 141 Kbps
    Width                                    : 720 pixels
    Height                                   : 304 pixels
    Display aspect ratio                     : 2.35:1
    Frame rate                               : 23.976 fps
    Color space                              : YUV
    Chroma subsampling                       : 4:2:0
    Bit depth                                : 8 bits
    Scan type                                : Progressive
    Compression mode                         : Lossy
    Bits/(Pixel*Frame)                       : 0.408
    Stream size                              : 1.53 GiB (70%)
    Writing library                          : XviD 73

    Audio #1
    ID                                       : 1
    Format                                   : AC-3
    Format/Info                              : Audio Coding 3
    Mode extension                           : CM (complete main)
    Codec ID                                 : 2000
    Duration                                 : 1h 42mn
    Bit rate mode                            : Constant
    Bit rate                                 : 448 Kbps
    Channel(s)                               : 6 channels
    Channel positions                        : Front: L C R, Side: L R, LFE
    Sampling rate                            : 48.0 KHz
    Bit depth                                : 16 bits
    Compression mode                         : Lossy
    Stream size                              : 329 MiB (15%)
    Alignment                                : Split accross interleaves
    Interleave, duration                     : 42 ms (1.00 video frame)
    Interleave, preload duration             : 500 ms
    Title                                    : Russian

    Audio #2
    ID                                       : 2
    Format                                   : AC-3
    Format/Info                              : Audio Coding 3
    Mode extension                           : CM (complete main)
    Codec ID                                 : 2000
    Duration                                 : 1h 42mn
    Bit rate mode                            : Constant
    Bit rate                                 : 448 Kbps
    Channel(s)                               : 6 channels
    Channel positions                        : Front: L C R, Side: L R, LFE
    Sampling rate                            : 48.0 KHz
    Bit depth                                : 16 bits
    Compression mode                         : Lossy
    Stream size                              : 329 MiB (15%)
    Alignment                                : Split accross interleaves
    Interleave, duration                     : 42 ms (1.00 video frame)
    Interleave, preload duration             : 500 ms
    Title                                    : English

    Скриншоты:

    Каталог Новинок (Фильмы-трейлеры, Игры, Сериалы, Мультфильмы)

    © Оформление by Raven



  • Скачать 300 спартанцев: Расцвет империи через торрент http://i5.imageban.ru/out/2014/06/26/50d27042a762a6099f0673a6fa41a333.jpg Скачать, смотреть онлайн 300 спартанцев: Расцвет империи бесплантно в хорошем качестве Описание:После победы над царем Леонидом персидская армия во главе с Ксерксом движется на юг. На её пути оказывается флот Афин под ... 9.5 10 23
    Info! Золотая раздача, скачанное не засчитывается.
    Торрент: Зарегистрирован [2014-06-26 16:59] · скачан: 766 раз
    Статус: √ проверено
    Размер: 2.19 GB
    Как cкачать? Как скачать 300 спартанцев: Расцвет империи через торрент | UTorrent

    % Раздел Тема Автор DL S | L
    Фильмы 2014 [DVDrip, WEB-DLRip, HDrip] [ 1.46 GB ] 300 спартанцев: Расцвет империи / 300: Rise of an Empire | iTunes | DLRip, Дублированный, iTunes Seedtank Скачать
    1 | 0
    Фильмы 2014 [DVDrip, WEB-DLRip, HDrip] [ 1.46 GB ] 300 спартанцев: Расцвет империи / 300: Rise of an Empire | Лицензия | BDRip-AVC potroks Скачать
    1 | 0
    Фильмы (DVD фильмы) [ 5.76 GB ] 300 спартанцев: Расцвет империи / 300: Rise of an Empire | | 2014, фэнтези, боевик, драма, военный, DVD9 voovaz Скачать
    1 | 0
    Фильмы [HD 720p, 1080p] (Хороший звук DUB, MVO) [ 13.42 GB ] 300 спартанцев: Расцвет империи / 300: Rise of an Empire | Лицензия | 1080p, Дублированный, Лицензия Seedtank Скачать
    1 | 0
    Фильмы (HD 720p, 1080p) (48-60 fps) [ 4.44 GB ] 300 спартанцев: Расцвет империи / 300: Rise of an Empire | Дубляж | 720p,Профессиональный [Дубляж KEYS Скачать
    1 | 0
    Фильмы [HD 720p, 1080p] (Хороший звук DUB, MVO) [ 11.52 GB ] 300 спартанцев: Расцвет империи / 300: Rise of an Empire | Лицензия «Blu-Ray CEE» | 1080p, Дубляж - [Лицензия «Blu-Ray CEE» Ворон Скачать
    1 | 0
    Фильмы [HD 720p, 1080p] (Хороший звук DUB, MVO) [ 5.7 GB ] 300 спартанцев: Расцвет империи / 300: Rise of an Empire | Лицензия «Blu-Ray CEE» | 720p, Дубляж -[Лицензия «Blu-Ray CEE» Ворон Скачать
    1 | 0



    Последний раз редактировалось: Ворон (2014-06-27 16:55), всего редактировалось 1 раз

    28-11-2019 20:33  


    Отключить вcю реклaмy на сайте, в т.ч. и в плеере онлайн просмотра!

      Дорогой пользователь! Огромная просьба, поблагодарите релизера, оцените раздачу и оставьте свои комментарий, если Вы скачали 300 спартанцев: Расцвет империи через торрент бесплатно!!
      Комментировать посты могут только пользователи прошедшие не сложную регистрацию
      Показать сообщения:    


      300 спартанцев: Расцвет империи через торрент
      Скачать бесплатно 300 спартанцев: Расцвет империи
      300 спартанцев: Расцвет империи скачать торрент
      300 спартанцев: Расцвет империи смотреть онлайн
      Cкачать фильм 300 спартанцев: Расцвет империи бесплатно
      300 спартанцев: Расцвет империи скачать торрент в хорошем качестве
      300 спартанцев: Расцвет империи смотреть онлайн бесплатно в хорошем качестве
      Вы не можете начинать темы
      Вы не можете отвечать на сообщения
      Вы не можете редактировать свои сообщения
      Вы не можете удалять свои сообщения
      Вы не можете голосовать в опросах
      Вы не можете прикреплять файлы к сообщениям
      Вы можете скачивать файлы
      300 спартанцев: Расцвет империи / 300: Rise of an Empire [2014, США, фэнтези, боевик, драма, BDRip, Дубляж - [Лицензия «Blu-Ray CEE»] смотреть онлайн, скачать торрент picoco.icu