Мега распродажа FORZA HORIZON 4 ULTIMATE+ВСЕ DLC+ОНЛАЙН всего за 499р. 349 руб. (супер цена). Внимание количество ограничено!!!

iTunes

1+1

iTunes

мы

iTunes

1

1 сезон

Чернобыль

1 сезон

Ральф против интернета

Лицензия

ПШазам

8 сезон

Игра престолов

Лицензия

30
pack

ВАЖНО

!!Акция!!

Alien_RageХит недели

RePack

Resident Evil 21

ИГРА 18+

pack

RePack

Metro:Exodus

!!Акция!!

Alien_Rage

RePack

fifa19

RePack

Assassins Creed: Odyssey

RePack

NEED FOR SPEED™ PAYBACK

3 сезон

9 сезон

Бесстыжие 9 сезон

Все сериалы

все сериалы на PB.wtf

RePack

FAR CRY 5
Ребята, катастрофически не хватает 2730р. для оплаты серверов за ИЮНЬ (всвязи с блокировками трафик упал в 3 раза), 1-2р., выручайте.
  

Старое ружьё / Серии: 1-4 из 4 (Кирилл Белевич) [2014 г., Военный, драма, DVDRip] pb.wtf

Старое ружьё через торрент pb.wtf

Раздают: 1 [ 0 KB/s ]
Размер: 2.91 GB | Добавлен: 5 лет назад | Торрент скачан:1276 раз
Скачать  

26-06-2014 17:51 Старое ружьё Скачать торрент  

Старое ружьёГод выпуска: 2014
Страна: Россия Марс Медиа Энтертейнмент
Жанр: Военный, драма
Продолжительность: 4 x ~ 00:48:00

Режиссер: Кирилл Белевич
Продюссер: Рубен Дишдишян, Елена Денисевич, Александр Шапошников
Сценарий: Сергей Калужанов

Премьера в мире: 9 мая 2014 В ролях: Тимофей Трибунцев, Ирина Пегова, Добрыня Белевич-Оболенский, Николай Козак, Юрий Ицков, Туре Рифенштейн, Ёшуа Гроте, Джулиан Мау, Фитц ван Том, Бастиан Зирих

Описание: 1941 год. Петр — простой учитель в маленькой деревне. Он считает себя вне политики и уверен: если вести себя тихо и не перечить властям, тебя не тронут. Но вскоре все меняется. После ожесточенного боя Красная армия отступает, и в село приходят немцы. Оккупанты вводят комендантский час, оружие и боеприпасы приказано сдать под угрозой расстрела. А потом в семье Петра случается трагедия. И миролюбивый учитель математики берет в руки припрятанное от немцев старое ружье…

Качество: DVDRip
Формат: AVI
Видео кодек: XviD
Аудио кодек: AC3
Видео: Xvid 720x400, 25000fps, 1627kbps
Аудио: Dolby AC3, 48000Hz, 6ch, 448kbps
Релиз от: Вассилич





General
Complete name : I:\01 favorit 5\Старое ружьё\Старое ружьё.01.avi
Format : AVI
Format/Info : Audio Video Interleave
File size : 746 MiB
Duration : 50mn 2s
Overall bit rate : 2 085 Kbps
Writing application : VirtualDubMod 1.5.10.3 | (build 2550/release)
Writing library : VirtualDubMod build 2550/release

Video
ID : 0
Format : MPEG-4 Visual
Format profile : Advanced Simple@L5
Format settings, BVOP : Yes
Format settings, QPel : No
Format settings, GMC : No warppoints
Format settings, Matrix : Default (MPEG)
Codec ID : XVID
Codec ID/Hint : XviD
Duration : 50mn 2s
Bit rate : 1 628 Kbps
Width : 720 pixels
Height : 400 pixels
Display aspect ratio : 16:9
Frame rate : 25.000 fps
Color space : YUV
Chroma subsampling : 4:2:0
Bit depth : 8 bits
Scan type : Progressive
Compression mode : Lossy
Bits/(Pixel*Frame) : 0.226
Stream size : 583 MiB (78%)
Writing library : XviD 64

Audio
ID : 1
Format : AC-3
Format/Info : Audio Coding 3
Mode extension : CM (complete main)
Format settings, Endianness : Big
Codec ID : 2000
Duration : 49mn 59s
Bit rate mode : Constant
Bit rate : 448 Kbps
Channel(s) : 6 channels
Channel positions : Front: L C R, Side: L R, LFE
Sampling rate : 48.0 KHz
Bit depth : 16 bits
Compression mode : Lossy
Stream size : 160 MiB (21%)
Alignment : Split accross interleaves
Interleave, duration : 40 ms (1.00 video frame)
Interleave, preload duration : 500 ms

pb.wtf



Скачать Старое ружьё через торрент http://pic.kartinco.top/images/6/flkci.jpg Скачать фильм Старое ружьё через торрент бесплантно в хорошем качестве Описание: 1941 год. Петр — простой учитель в маленькой деревне. Он считает себя вне политики и уверен: если вести себя тихо и не перечить ... 9.8 10 39
Info! Золотая раздача, скачанное не засчитывается.
Торрент: Зарегистрирован [2014-06-26 17:51] · скачан: 1 276 раз
Статус: √ проверено
Размер: 2.91 GB
Как cкачать? Как скачать Старое ружьё через торрент | qTorrent

% Раздел Тема Автор DL S | L
Наши сериалы [ 4.06 GB ] Старое ружьё / 1-4 серии из 4 [2014 военный WEB-DL 720p] bober100 Скачать
1 | 0
Наши сериалы [ 2.34 GB ] Старое ружьё / Серии: 1-4 из 4 [2014 Военный WEBRip-AVC] DomSarD Скачать
1 | 0


>> Регистрируемся здесь <<






Отзывы и комментарии о схеме читаем и пишем здесь: ---> Отзывы и комментарии о схеме

Новые благодарочки в телеграм довольных пользователей:
скриншот   скриншот   скриншот   скриншот   скриншот
    Дорогой пользователь! Огромная просьба, поблагодарите релизера, оцените раздачу и оставьте свои комментарий, если Вы скачали Старое ружьё через торрент бесплатно! Внесите свою лепту в развитие PiratBit!
    Комментировать посты могут только пользователи прошедшие не сложную регистрацию
    Показать сообщения:    

    Старое ружьё через торрент
    Скачать бесплатно Старое ружьё
    Старое ружьё скачать торрент
    Старое ружьё смотреть онлайн
    Cкачать фильм Старое ружьё бесплатно
    Старое ружьё скачать торрент в хорошем качестве
    Старое ружьё смотреть онлайн бесплатно в хорошем качестве


    Вы не можете начинать темы
    Вы не можете отвечать на сообщения
    Вы не можете редактировать свои сообщения
    Вы не можете удалять свои сообщения
    Вы не можете голосовать в опросах
    Вы не можете прикреплять файлы к сообщениям
    Вы можете скачивать файлы