Достать ножи: Стеклянная луковица

MVO

Добыча

Дубляж

Уэнсдэй

1 сезон

Тор

Дубляж

13 клиническая

1 сезон

Жестокая ночь

MVO

Одни из нас

1 сезон

Deluxe

pack

Рекомендуем

30

Пиратка

ВАЖНО

ВАЖНО

Ghostwire

Пиратка

jed

RePack

nioh2

RePack

RDR2

RePack

NEED FOR SPEED™ PAYBACK

RePack

скачать торрент

Кинопоиск HD

Острые козырьки 6 сезон

6 сезон

FAR CRY 6

RePack

скачать торрент

Лицензия

скачать торрент

MVO

1

1 сезон

скачать торрент

1 сезон

скачать торрент

Лицензия

  

300 спартанцев: Расцвет империи / 300: Rise of an Empire (Ноам Мурро / Noam Murro) [2014 г., Фэнтези, боевик, драма, военный, BDRip-AVC] Дубляж Лицензия

300 спартанцев: Расцвет империи через торрент pb.wtf

Размер: 1.46 GB | Добавлен: 8 лет 7 мес. назад | Торрент скачан:1514 раз
Смотреть онлайн | Скачать | Поддержите нас   

26-06-2014 20:00 300 спартанцев: Расцвет империи Скачать торрент  

300 спартанцев: Расцвет империи / 300: Rise of an Empire
Год выпуска: 2014
Страна: США / Warner Bros. Pictures, Legendary Pictures, Hollywood Gang Productions, Cruel & Unusual Films...
Жанр: Фэнтези, боевик, драма, военный
Продолжительность: 01:42:36
Перевод: Дубляж [BD CEE]
Субтитры: Русские (полные + форс.), украинские (полные + форс.), английские (Full + SDH)

Режиссер: Ноам Мурро / Noam Murro



В ролях: Салливан Степлтон, Ева Грин, Лина Хиди, Ханс Мэтисон, Родриго Санторо, Андрей Клод, Дэвид Уэнэм, Джек О`Коннелл, Марк Киллин, Эндрю Тирнан

Описание: После победы над царем Леонидом персидская армия во главе с Ксерксом движется на юг. На её пути оказывается флот Афин под руководством адмирала Фемистокла. Силы противников не равны, и Фемистокл вынужден вступить в союз с заклятым врагом афинского государства Спартой. Только объединившись у враждующих полисов-государств есть шанс что-то противопоставить могущественному Ксерксу.

Качество: BDRip-AVC
Формат: MKV
Видео кодек: H.264
Аудио кодек: AC3
Видео: 936x390 (2,40:1), 23,976 fps, 1845 Кbps, 0.211 bit/pixel
Аудио#1: 48 kHz, AC3 Dolby Digital, 2/0 (L,R,) + LFE ch, 192.00 kbps

Релиз группы:
Автор рипа: potroks

Общее
Уникальный идентификатор : 240360138435285861431383149025180856981 (0xB4D3ADC629664A2CB04BB457AC6D3295)
Полное имя : 330.Spartantcev.Rastcvet.Imperii.2014.RUS.BDRip.x264.-HELLYWOOD.mkv
Формат : Matroska
Версия формата : Version 4 / Version 2
Размер файла : 1,46 Гбайт
Продолжительность : 1 ч. 42 м.
Общий поток : 2038 Кбит/сек
Название фильма : HELLYWOOD - rip by potroks
Дата кодирования : UTC 2014-06-26 19:10:39
Программа кодирования : mkvmerge v5.9.0 ('On The Loose') built on Dec 15 2012 16:39:58
Библиотека кодирования : libebml v1.3.0 + libmatroska v1.4.0

Видео
Идентификатор : 1
Формат : AVC
Формат/Информация : Advanced Video Codec
Профиль формата : [email protected]
Параметр CABAC формата : Да
Параметр ReFrames формата : 12 кадров
Идентификатор кодека : V_MPEG4/ISO/AVC
Продолжительность : 1 ч. 42 м.
Битрейт : 1845 Кбит/сек
Ширина : 936 пикселей
Высота : 390 пикселей
Соотношение сторон : 2,40:1
Режим частоты кадров : Постоянный
Частота кадров : 23,976 кадра/сек
Цветовое пространство : YUV
Субдискретизация насыщенности : 4:2:0
Битовая глубина : 8 бит
Тип развёртки : Прогрессивная
Бит/(Пиксели*Кадры) : 0.211
Размер потока : 1,29 Гбайт (89%)
Заголовок : 300: Rise of an Empire
Библиотека кодирования : x264 core 130 r2273 b3065e6
Настройки программы : cabac=1 / ref=12 / deblock=1:-3:-3 / analyse=0x3:0x133 / me=umh / subme=11 / psy=1 / psy_rd=1.01:0.00 / mixed_ref=1 / me_range=48 / chroma_me=1 / trellis=2 / 8x8dct=1 / cqm=0 / deadzone=21,11 / fast_pskip=0 / chroma_qp_offset=-2 / threads=9 / lookahead_threads=6 / sliced_threads=0 / nr=0 / decimate=0 / interlaced=0 / bluray_compat=0 / constrained_intra=0 / bframes=13 / b_pyramid=2 / b_adapt=2 / b_bias=0 / direct=3 / weightb=1 / open_gop=0 / weightp=2 / keyint=250 / keyint_min=23 / scenecut=40 / intra_refresh=0 / rc_lookahead=60 / rc=2pass / mbtree=0 / bitrate=1845 / ratetol=1.0 / qcomp=0.70 / qpmin=0 / qpmax=69 / qpstep=4 / cplxblur=20.0 / qblur=0.5 / vbv_maxrate=20000 / vbv_bufsize=20000 / nal_hrd=none / ip_ratio=1.35 / pb_ratio=1.25 / aq=2:0.90
Язык : English
Default : Да
Forced : Нет

Аудио
Идентификатор : 2
Формат : AC-3
Формат/Информация : Audio Coding 3
Расширение режима : CM (complete main)
Параметр Endianness формата : Big
Идентификатор кодека : A_AC3
Продолжительность : 1 ч. 42 м.
Вид битрейта : Постоянный
Битрейт : 192 Кбит/сек
Каналы : 2 канала
Расположение каналов : Front: L R
Частота : 48,0 КГц
Битовая глубина : 16 бит
Метод сжатия : С потерями
Размер потока : 141 Мбайт (9%)
Заголовок : Дубляж | DD 5.1 @ 448 kbps - BD CEE
Язык : Russian
Default : Да
Forced : Нет

Текст #1
Идентификатор : 3
Формат : UTF-8
Идентификатор кодека : S_TEXT/UTF8
Идентификатор кодека/Информация : UTF-8 Plain Text
Заголовок : форс.
Язык : Russian
Default : Да
Forced : Да

Текст #2
Идентификатор : 4
Формат : UTF-8
Идентификатор кодека : S_TEXT/UTF8
Идентификатор кодека/Информация : UTF-8 Plain Text
Заголовок : полные
Язык : Russian
Default : Нет
Forced : Нет

Текст #3
Идентификатор : 5
Формат : UTF-8
Идентификатор кодека : S_TEXT/UTF8
Идентификатор кодека/Информация : UTF-8 Plain Text
Заголовок : форс.
Язык : Ukrainian
Default : Нет
Forced : Нет

Текст #4
Идентификатор : 6
Формат : UTF-8
Идентификатор кодека : S_TEXT/UTF8
Идентификатор кодека/Информация : UTF-8 Plain Text
Заголовок : полные
Язык : Ukrainian
Default : Нет
Forced : Нет

Текст #5
Идентификатор : 7
Формат : UTF-8
Идентификатор кодека : S_TEXT/UTF8
Идентификатор кодека/Информация : UTF-8 Plain Text
Заголовок : Full
Язык : English
Default : Нет
Forced : Нет

Текст #6
Идентификатор : 8
Формат : UTF-8
Идентификатор кодека : S_TEXT/UTF8
Идентификатор кодека/Информация : UTF-8 Plain Text
Заголовок : SDH
Язык : English
Default : Нет
Forced : Нет

Меню
00:00:00.000 : en:Chapter 01
00:10:26.376 : en:Chapter 02
00:20:54.628 : en:Chapter 03
00:31:15.290 : en:Chapter 04
00:40:58.498 : en:Chapter 05
00:50:50.714 : en:Chapter 06
01:00:05.435 : en:Chapter 07
01:09:51.813 : en:Chapter 08
01:19:51.245 : en:Chapter 09
01:31:07.295 : en:Chapter 10
01:33:57.131 : en:Chapter 11




Скачать 300 спартанцев: Расцвет империи через торрент https://pic.kartinco.top/new/img/2014-06/26/hdub82zjzue3pfjit7txamzv1.png Скачать, смотреть онлайн 300 спартанцев: Расцвет империи бесплантно в хорошем качестве Описание: После победы над царем Леонидом персидская армия во главе с Ксерксом движется на юг. На её пути оказывается флот Афин под ... 9.3 10 23
Info! Золотая раздача, скачанное не засчитывается.
Торрент: Зарегистрирован [2014-06-26 20:00] · скачан: 1 514 раз
Статус: √ проверено
Размер: 1.46 GB
Как cкачать? Как скачать 300 спартанцев: Расцвет империи через торрент | UTorrent

% Раздел Тема Автор DL S | L
Фильмы [HD 720p, 1080p] (Хороший звук DUB, MVO) [ 11.52 GB ] 300 спартанцев: Расцвет империи / 300: Rise of an Empire | Лицензия «Blu-Ray CEE» | 1080p, Дубляж - [Лицензия «Blu-Ray CEE» Ворон Скачать
1 | 0
Фильмы [HD 720p, 1080p] (Хороший звук DUB, MVO) [ 5.7 GB ] 300 спартанцев: Расцвет империи / 300: Rise of an Empire | Лицензия «Blu-Ray CEE» | 720p, Дубляж -[Лицензия «Blu-Ray CEE» Ворон Скачать
1 | 0
Фильмы 2014 [DVDrip, WEB-DLRip, HDrip] [ 2.19 GB ] 300 спартанцев: Расцвет империи / 300: Rise of an Empire | Лицензия «Blu-Ray CEE» | BDRip, Дубляж - [Лицензия «Blu-Ray CEE» Ворон Скачать
1 | 0
Фильмы 2014 [DVDrip, WEB-DLRip, HDrip] [ 1.94 GB ] 300 спартанцев: Расцвет империи / 300: Rise of an Empire | Лицензия | DLRip-AVC,Профессиональный [Дубляж - Лицензия/ iTunes Ворон Скачать
1 | 0

28-11-2019 20:33  


Отключить вcю реклaмy на сайте, в т.ч. и в плеере онлайн просмотра!

22-08-2014 10:32 300 спартанцев: Расцвет империи Скачать торрент  

330 засранцев? Надо глянуть...ахахаха)



    Дорогой пользователь! Огромная просьба, поблагодарите релизера, оцените раздачу и оставьте свои комментарий, если Вы скачали 300 спартанцев: Расцвет империи через торрент бесплатно!!
    Комментировать посты могут только пользователи прошедшие не сложную регистрацию
    Показать сообщения:    


    300 спартанцев: Расцвет империи через торрент
    Скачать бесплатно 300 спартанцев: Расцвет империи
    300 спартанцев: Расцвет империи скачать торрент
    300 спартанцев: Расцвет империи смотреть онлайн
    Cкачать фильм 300 спартанцев: Расцвет империи бесплатно
    300 спартанцев: Расцвет империи скачать торрент в хорошем качестве
    300 спартанцев: Расцвет империи смотреть онлайн бесплатно в хорошем качестве
    Вы не можете начинать темы
    Вы не можете отвечать на сообщения
    Вы не можете редактировать свои сообщения
    Вы не можете удалять свои сообщения
    Вы не можете голосовать в опросах
    Вы не можете прикреплять файлы к сообщениям
    Вы можете скачивать файлы
    300 спартанцев: Расцвет империи / 300: Rise of an Empire [2014 г., Фэнтези, боевик, драма, военный, BDRip-AVC] Дубляж Лицензия смотреть онлайн, скачать торрент picoco.icu