новый адрес
Мега распродажа FORZA HORIZON 4 ULTIMATE+ВСЕ DLC+ОНЛАЙН всего за 499р. 349 руб. (супер цена). Внимание количество ограничено!!!

iTunes

1+1

iTunes

мы

iTunes

1

iTunes

Чернобыль

iTunes

Ральф против интернета

Лицензия

ПШазам

Лицензия

Игра престолов

Лицензия

30
pack

ВАЖНО

!!Акция!!

Alien_RageХит недели

RePack

Resident Evil 21

ИГРА 18+

pack

RePack

Metro:Exodus

!!Акция!!

Alien_Rage

RePack

fifa19

RePack

Assassins Creed: Odyssey

RePack

NEED FOR SPEED™ PAYBACK

3 сезон

9 сезон

Бесстыжие 9 сезон

Все сериалы

все сериалы на PB.wtf

RePack

FAR CRY 5
Ребята, катастрофически не хватает 1900р. для оплаты серверов за Октябрь (всвязи с блокировками трафик упал в 3 раза), 1-2р., выручайте.
  

Зеркало для героя (Владимир Хотиненко) [1987, СССР, фантастика, фэнтези, драма, DVDRip] pb.wtf

Зеркало для героя через торрент pb.wtf

Размер: 1.46 GB | Добавлен: 5 лет 4 мес. назад | Торрент скачан:80 раз
Скачать  

27-06-2014 04:29 Зеркало для героя Скачать торрент  

Зеркало для героя


Год выпуска: 1987
Страна: СССР
Жанр:фантастика, фэнтези, драма
Продолжительность:02:11:16
Перевод:Не требуется

Субтитры: Нет
Режиссер:Владимир Хотиненко

  • В ролях:

    Сергей Колтаков (Сергей Кириллович Пшеничный, лингвист-психолог), Иван Бортник (Андрей Иванович Немчинов, горный инженер), Борис Галкин (Кирилл Иванович Пшеничный, отец Сергея в молодости), Наталья Акимова (Лида, мать Сергея), Феликс Степун (Кирилл Иванович Пшеничный, отец Сергея в старости), Елена Гольянова (Роза, рабочая на шахте), Яков Степанов (Сашка-танкист, слепой инвалид войны, брат Розы), Виктор Смирнов (Тюкин Алексей Николаевич, начальник шахты), Николай Стоцкий (Федор Петренко, молодой шахтёр), Сергей Паршин (Пухарев, шахтёр-стахановец), Валентин Аронян, Александр Песков (Рябенко, милиционер)

  • Описание:
    Двое случайных знакомых, Сергей Пшеничный и Андрей Немчинов, волею загадочных обстоятельств переносятся почти на 40 лет назад. Этот день - 8 мая 1949 года - начинает повторяться для них с неумолимым постоянством. Каждому из героев судьба дает свой шанс: Андрей может предотвратить гибель людей в обветшавшей шахте, Сергей - по-новому взглянуть на своих родителей и понять их.

  • Мировая премьера:16 апреля 1988


      Качество: DVDRip
      Формат: AVI
      Видео кодек: XviD
      Аудио кодек:AC3
      Видео: XviD, 640x432 (3:2), 1386 kbps, 25 fps, 0,201 bpp
      Аудио: AC3 / 2.0 / 48 kHz / 192 kbps / 16 bit


    Код:

    General
    Complete name                            : D:\Торенты\Zerkalo.dlja.geroja.1987.DVDRip__by_AVP Studio.avi
    Format                                   : AVI
    Format/Info                              : Audio Video Interleave
    File size                                : 1.46 GiB
    Duration                                 : 2h 11mn
    Overall bit rate                         : 1 589 Kbps
    Writing application                      : VirtualDubMod 1.5.10.3 | www.virtualdub-fr.org || (build 2550/release)
    Writing library                          : VirtualDubMod build 2550/release

    Video
    ID                                       : 0
    Format                                   : MPEG-4 Visual
    Format profile                           : Advanced Simple@L5
    Format settings, BVOP                    : 1
    Format settings, QPel                    : No
    Format settings, GMC                     : No warppoints
    Format settings, Matrix                  : Custom
    Codec ID                                 : XVID
    Codec ID/Hint                            : XviD
    Duration                                 : 2h 11mn
    Bit rate                                 : 1 387 Kbps
    Width                                    : 640 pixels
    Height                                   : 432 pixels
    Display aspect ratio                     : 3:2
    Frame rate                               : 25.000 fps
    Color space                              : YUV
    Chroma subsampling                       : 4:2:0
    Bit depth                                : 8 bits
    Scan type                                : Progressive
    Compression mode                         : Lossy
    Bits/(Pixel*Frame)                       : 0.201
    Stream size                              : 1.27 GiB (87%)
    Writing library                          : XviD 65

    Audio
    ID                                       : 1
    Format                                   : AC-3
    Format/Info                              : Audio Coding 3
    Mode extension                           : CM (complete main)
    Codec ID                                 : 2000
    Duration                                 : 2h 11mn
    Bit rate mode                            : Constant
    Bit rate                                 : 192 Kbps
    Channel(s)                               : 2 channels
    Channel positions                        : Front: L R
    Sampling rate                            : 48.0 KHz
    Bit depth                                : 16 bits
    Compression mode                         : Lossy
    Stream size                              : 180 MiB (12%)
    Alignment                                : Split accross interleaves
    Interleave, duration                     : 40 ms (1.00 video frame)
    Interleave, preload duration             : 500 ms

    Скриншоты:

    Каталог Новинок (Фильмы-трейлеры, Игры, Сериалы, Мультфильмы)

    © Оформление by Raven
    pb.wtf



  • Скачать Зеркало для героя через торрент http://i61.fastpic.ru/big/2014/0627/38/2a2c6b2dc26153701fef7abf0a08ac38.png Скачать фильм Зеркало для героя через торрент бесплантно в хорошем качестве Описание:Двое случайных знакомых, Сергей Пшеничный и Андрей Немчинов, волею загадочных обстоятельств переносятся почти на 40 лет назад. ... 9.6 10 7
    Info! Золотая раздача, скачанное не засчитывается.
    Торрент: Зарегистрирован [2014-06-27 04:29] · скачан: 80 раз
    Статус: √ проверено
    Размер: 1.46 GB
    Как cкачать? Как скачать Зеркало для героя через торрент | qTorrent

    % Раздел Тема Автор DL S | L
    Отечественный Рэп, Хип-Хоп [ 77 MB ] Руставели - Зеркало для героя 2017 / MP3 / 320 kbps / Rap Hip-Hop bober100 Скачать
    1 | 0
    Кино СССР [ 1.67 GB ] Зеркало для героя [1987 СССР DVDRip-AVC] Ворон Скачать
    1 | 0


    >> Регистрируемся здесь <<






    Отзывы и комментарии о схеме читаем и пишем здесь: ---> Отзывы и комментарии о схеме

    Новые благодарочки в телеграм довольных пользователей:
    скриншот   скриншот   скриншот   скриншот   скриншот
      Дорогой пользователь! Огромная просьба, поблагодарите релизера, оцените раздачу и оставьте свои комментарий, если Вы скачали Зеркало для героя через торрент бесплатно! Внесите свою лепту в развитие PiratBit!
      Комментировать посты могут только пользователи прошедшие не сложную регистрацию
      Показать сообщения:    

      Зеркало для героя через торрент
      Скачать бесплатно Зеркало для героя
      Зеркало для героя скачать торрент
      Зеркало для героя смотреть онлайн
      Cкачать фильм Зеркало для героя бесплатно
      Зеркало для героя скачать торрент в хорошем качестве
      Зеркало для героя смотреть онлайн бесплатно в хорошем качестве


      Вы не можете начинать темы
      Вы не можете отвечать на сообщения
      Вы не можете редактировать свои сообщения
      Вы не можете удалять свои сообщения
      Вы не можете голосовать в опросах
      Вы не можете прикреплять файлы к сообщениям
      Вы можете скачивать файлы