Ссылка на приватное зеркало нашего сайта всего за 1$. Внимание количество ограничено!!!

2 сезон

iTunes

1 сезон

1

iTunes

iTunes

iTunes

1 сезон

RePack

30

ИГРА 18+

pack

ВАЖНО

!!Акция!!

Alien_RageХит недели

RePack

MK11
pack

Забери бонус

RePack

jed

!!Акция!!

Alien_Rage

RePack

fifa19

RePack

Assassins Creed: Odyssey

RePack

NEED FOR SPEED™ PAYBACK

4 сезон

9 сезон

Бесстыжие 9 сезон

Все сериалы

все сериалы на PB.wtf

RePack

FAR CRY 5
  

300 спартанцев: Расцвет империи / 300: Rise of an Empire (Ноам Мурро / Noam Murro) [2014, США, фэнтези, боевик, драма, BDRip 720p, Дубляж -[Лицензия «Blu-Ray CEE»] pb.wtf

300 спартанцев: Расцвет империи через торрент pb.wtf

Размер: 5.7 GB | Добавлен: 6 лет 3 мес. назад | Торрент скачан:331 раз
Скачать  

27-06-2014 09:35 300 спартанцев: Расцвет империи Скачать торрент  

300 спартанцев: Расцвет империи / 300: Rise of an Empire
«Смерти вопреки»

Год выпуска: 2014
Страна: США
Жанр:фэнтези, боевик, драма, военный
Продолжительность:01:42:36
Перевод:Дубляж - [Лицензия «Blu-Ray CEE»]

Субтитры: русские (Forced), русские (Full), украинские (Forced), украинские (Full), английские (Full), английские (SDH),
Режиссер:Ноам Мурро / Noam Murro

  • В ролях:

    Салливан Степлтон (Themistocles), Ева Грин (Artemisia), Джек О’Коннелл (Calisto), Каллэн Мулвей (Scyllias), Ганс Мэтисон (Aeskylos), Родриго Санторо (Xerxes), Лина Хиди (Queen Gorgo), Дэвид Уэнэм (Dilios), Эндрю Тирнан (Ephialtes), Эндрю Плевин (Daxos), Игал Наор (King Darius), Питер Менса (Persian Emissary)

  • Описание:
    После победы над царем Леонидом персидская армия во главе с Ксерксом движется на юг. На её пути оказывается флот Афин под руководством адмирала Фемистокла. Силы противников не равны, и Фемистокл вынужден вступить в союз с заклятым врагом афинского государства Спартой. Только объединившись у враждующих полисов-государств есть шанс что-то противопоставить могущественному Ксерксу.

  • Мировая премьера:5 марта 2014


      Качество:BDRip 720p
      Формат: MKV
      Видео кодек: AVC
      Аудио кодек:AC3
      Видео: AVC, 1280x534 (2.40:1), 6174 kbps, 23,976 fps, 0,377 bpp
      Аудио №1: русский / AC3 / 5.1 / 48 kHz / 448 kbps / 16 bit || DUB
      Аудио №2: русский / AC3 / 5.1 / 48 kHz / 448 kbps / 16 bit || | Русский | Д. Есарев
      Аудио №3: украинский / AC3 / 5.1 / 48 kHz / 448 kbps / 16 bit
      Аудио №4: английский / AC3 / 5.1 / 48 kHz / 448 kbps / 16 bit
      Навигация по главам: есть


    Код:

    General
    Unique ID                                : 240454415322137007910187876424659842547 (0xB4E5D5FBC43D69DFAB2FE4E3B65D35F3)
    Complete name                            : D:\Торенты\300.Rise of an Empire. (2014) BDRip 720p.mkv
    Format                                   : Matroska
    Format version                           : Version 2
    File size                                : 5.70 GiB
    Duration                                 : 1h 42mn
    Overall bit rate                         : 7 960 Kbps
    Movie name                               : 300. Rise of an Empire. 2014
    Encoded date                             : UTC 2014-06-26 18:08:11
    Writing application                      : mkvmerge v5.8.0 ('No Sleep / Pillow') built on Sep  2 2012 15:37:04
    Writing library                          : libebml v1.2.3 + libmatroska v1.3.0

    Video
    ID                                       : 1
    Format                                   : AVC
    Format/Info                              : Advanced Video Codec
    Format profile                           : High@L4.1
    Format settings, CABAC                   : Yes
    Format settings, ReFrames                : 11 frames
    Codec ID                                 : V_MPEG4/ISO/AVC
    Duration                                 : 1h 42mn
    Bit rate                                 : 6 174 Kbps
    Width                                    : 1 280 pixels
    Height                                   : 534 pixels
    Display aspect ratio                     : 2.40:1
    Frame rate                               : 23.976 fps
    Color space                              : YUV
    Chroma subsampling                       : 4:2:0
    Bit depth                                : 8 bits
    Scan type                                : Progressive
    Bits/(Pixel*Frame)                       : 0.377
    Stream size                              : 4.31 GiB (75%)
    Title                                    : CHD
    Writing library                          : x264 core 138 r2356 a1d3d17
    Encoding settings                        : cabac=1 / ref=11 / deblock=1:-3:-3 / analyse=0x3:0x113 / me=umh / subme=10 / psy=1 / psy_rd=1.00:0.05 / mixed_ref=1 / me_range=32 / chroma_me=1 / trellis=2 / 8x8dct=1 / cqm=0 / deadzone=21,11 / fast_pskip=0 / chroma_qp_offset=-2 / threads=18 / lookahead_threads=1 / sliced_threads=0 / nr=0 / decimate=1 / interlaced=0 / bluray_compat=0 / constrained_intra=0 / bframes=4 / b_pyramid=2 / b_adapt=2 / b_bias=0 / direct=3 / weightb=1 / open_gop=0 / weightp=2 / keyint=250 / keyint_min=23 / scenecut=40 / intra_refresh=0 / rc=2pass / mbtree=0 / bitrate=6174 / ratetol=1.0 / qcomp=0.70 / qpmin=0 / qpmax=69 / qpstep=4 / cplxblur=20.0 / qblur=0.5 / ip_ratio=1.40 / pb_ratio=1.30 / aq=2:0.90
    Language                                 : English
    Default                                  : Yes
    Forced                                   : No

    Audio #1
    ID                                       : 2
    Format                                   : AC-3
    Format/Info                              : Audio Coding 3
    Mode extension                           : CM (complete main)
    Codec ID                                 : A_AC3
    Duration                                 : 1h 42mn
    Bit rate mode                            : Constant
    Bit rate                                 : 448 Kbps
    Channel(s)                               : 6 channels
    Channel positions                        : Front: L C R, Side: L R, LFE
    Sampling rate                            : 48.0 KHz
    Bit depth                                : 16 bits
    Compression mode                         : Lossy
    Stream size                              : 329 MiB (6%)
    Title                                    : Dub
    Language                                 : Russian
    Default                                  : Yes
    Forced                                   : Yes

    Audio #2
    ID                                       : 3
    Format                                   : AC-3
    Format/Info                              : Audio Coding 3
    Mode extension                           : CM (complete main)
    Codec ID                                 : A_AC3
    Duration                                 : 1h 42mn
    Bit rate mode                            : Constant
    Bit rate                                 : 448 Kbps
    Channel(s)                               : 6 channels
    Channel positions                        : Front: L C R, Side: L R, LFE
    Sampling rate                            : 48.0 KHz
    Bit depth                                : 16 bits
    Compression mode                         : Lossy
    Stream size                              : 329 MiB (6%)
    Title                                    : Есарев
    Language                                 : Russian
    Default                                  : No
    Forced                                   : No

    Audio #3
    ID                                       : 4
    Format                                   : AC-3
    Format/Info                              : Audio Coding 3
    Mode extension                           : CM (complete main)
    Codec ID                                 : A_AC3
    Duration                                 : 1h 42mn
    Bit rate mode                            : Constant
    Bit rate                                 : 448 Kbps
    Channel(s)                               : 6 channels
    Channel positions                        : Front: L C R, Side: L R, LFE
    Sampling rate                            : 48.0 KHz
    Bit depth                                : 16 bits
    Compression mode                         : Lossy
    Stream size                              : 329 MiB (6%)
    Title                                    : Dub
    Language                                 : Ukrainian
    Default                                  : No
    Forced                                   : No

    Audio #4
    ID                                       : 5
    Format                                   : AC-3
    Format/Info                              : Audio Coding 3
    Mode extension                           : CM (complete main)
    Codec ID                                 : A_AC3
    Duration                                 : 1h 42mn
    Bit rate mode                            : Constant
    Bit rate                                 : 448 Kbps
    Channel(s)                               : 6 channels
    Channel positions                        : Front: L C R, Side: L R, LFE
    Sampling rate                            : 48.0 KHz
    Bit depth                                : 16 bits
    Compression mode                         : Lossy
    Stream size                              : 329 MiB (6%)
    Language                                 : English
    Default                                  : No
    Forced                                   : No

    Text #1
    ID                                       : 6
    Format                                   : UTF-8
    Codec ID                                 : S_TEXT/UTF8
    Codec ID/Info                            : UTF-8 Plain Text
    Title                                    : Forced
    Language                                 : Russian
    Default                                  : Yes
    Forced                                   : Yes

    Text #2
    ID                                       : 7
    Format                                   : UTF-8
    Codec ID                                 : S_TEXT/UTF8
    Codec ID/Info                            : UTF-8 Plain Text
    Title                                    : Full
    Language                                 : Russian
    Default                                  : No
    Forced                                   : No

    Text #3
    ID                                       : 8
    Format                                   : UTF-8
    Codec ID                                 : S_TEXT/UTF8
    Codec ID/Info                            : UTF-8 Plain Text
    Title                                    : Forced
    Language                                 : Ukrainian
    Default                                  : No
    Forced                                   : No

    Text #4
    ID                                       : 9
    Format                                   : UTF-8
    Codec ID                                 : S_TEXT/UTF8
    Codec ID/Info                            : UTF-8 Plain Text
    Title                                    : Full
    Language                                 : Ukrainian
    Default                                  : No
    Forced                                   : No

    Text #5
    ID                                       : 10
    Format                                   : UTF-8
    Codec ID                                 : S_TEXT/UTF8
    Codec ID/Info                            : UTF-8 Plain Text
    Title                                    : Full
    Language                                 : English
    Default                                  : No
    Forced                                   : No

    Text #6
    ID                                       : 11
    Format                                   : UTF-8
    Codec ID                                 : S_TEXT/UTF8
    Codec ID/Info                            : UTF-8 Plain Text
    Title                                    : SDH
    Language                                 : English
    Default                                  : No
    Forced                                   : No

    Menu
    00:00:00.000                             : en:00:00:00.000
    00:10:26.376                             : en:00:10:26.376
    00:20:54.628                             : en:00:20:54.628
    00:31:15.290                             : en:00:31:15.290
    00:40:58.498                             : en:00:40:58.498
    00:50:50.714                             : en:00:50:50.714
    01:00:05.435                             : en:01:00:05.435
    01:09:51.813                             : en:01:09:51.813
    01:19:51.245                             : en:01:19:51.245
    01:31:07.295                             : en:01:31:07.295
    01:33:57.131                             : en:01:33:57.131

    Скриншоты:

    Каталог Новинок (Фильмы-трейлеры, Игры, Сериалы, Мультфильмы)
    pb.wtf



  • Скачать 300 спартанцев: Расцвет империи через торрент http://i63.fastpic.ru/big/2014/0627/e2/ef34ad560b2efde5aee369e9e43afae2.jpeg Скачать фильм 300 спартанцев: Расцвет империи через торрент бесплантно в хорошем качестве Описание:После победы над царем Леонидом персидская армия во главе с Ксерксом движется на юг. На её пути оказывается флот Афин под ... 9.1 10 9
    Info! Серебряная раздача, засчитывается только 50% скачанного.
    Торрент: Зарегистрирован [2014-06-27 09:35] · скачан: 331 раз
    Статус: √ проверено
    Размер: 5.7 GB
    Как cкачать? Как скачать 300 спартанцев: Расцвет империи через торрент | qTorrent

    % Раздел Тема Автор DL S | L
    Фильмы [HD 720p, 1080p] (Хороший звук DUB, MVO) [ 6.3 GB ] 300 спартанцев: Расцвет империи / 300: Rise of an Empire [2014 военный BDRip 1080p HEVC ()] Мичман37 Скачать
    1 | 0
    Фильмы 2014 [DVDrip, WEB-DLRip, HDrip] [ 1.51 GB ] 300 спартанцев: Расцвет империи / 300 Rise of an Empire [2014 военный HDRip ] Dean24 Скачать
    1 | 0
    Фильмы 2014 [DVDrip, WEB-DLRip, HDrip] [ 1.46 GB ] 300 спартанцев: Расцвет империи / 300: Rise of an Empire [2014 военный WEB-DLRip ] Seedtank Скачать
    2 | 0
    3D Фильмы [ 9.14 GB ] 300 спартанцев: Расцвет империи / 300: Rise of an Empire [2014 военный BDRip 1080p 3D ] makarevich Скачать
    1 | 0
    Фильмы 2014 [DVDrip, WEB-DLRip, HDrip] [ 1.46 GB ] 300 спартанцев: Расцвет империи / 300: Rise of an Empire [2014 военный BDRip-AVC] DUB potroks Скачать
    1 | 0
    3D Фильмы [ 14.14 GB ] 300 спартанцев: Расцвет империи в 3Д / 300: Rise of an Empire 3D [2014 Военный BDrip 1080p]Full OverUnder / Вертикальная стереопара serega768 Скачать
    1 | 0
    Фильмы (DVD фильмы) [ 5.76 GB ] 300 спартанцев: Расцвет империи / 300: Rise of an Empire [2014 военный DVD9] R5 voovaz Скачать
    1 | 0

    28-11-2019 20:33  

    Отключить всю рекламу на сайте

      Дорогой пользователь! Огромная просьба, поблагодарите релизера, оцените раздачу и оставьте свои комментарий, если Вы скачали 300 спартанцев: Расцвет империи через торрент бесплатно! Внесите свою лепту в развитие PiratBit!
      Комментировать посты могут только пользователи прошедшие не сложную регистрацию
      Показать сообщения:    

      300 спартанцев: Расцвет империи через торрент
      Скачать бесплатно 300 спартанцев: Расцвет империи
      300 спартанцев: Расцвет империи скачать торрент
      300 спартанцев: Расцвет империи смотреть онлайн
      Cкачать фильм 300 спартанцев: Расцвет империи бесплатно
      300 спартанцев: Расцвет империи скачать торрент в хорошем качестве
      300 спартанцев: Расцвет империи смотреть онлайн бесплатно в хорошем качестве


      Вы не можете начинать темы
      Вы не можете отвечать на сообщения
      Вы не можете редактировать свои сообщения
      Вы не можете удалять свои сообщения
      Вы не можете голосовать в опросах
      Вы не можете прикреплять файлы к сообщениям
      Вы можете скачивать файлы