Ссылка на приватное зеркало нашего сайта всего за 1$. Внимание количество ограничено!!!

2 сезон

iTunes

1 сезон

1

iTunes

iTunes

iTunes

1 сезон

RePack

30

ИГРА 18+

pack

ВАЖНО

!!Акция!!

Alien_RageХит недели

RePack

MK11
pack

Забери бонус

RePack

jed

!!Акция!!

Alien_Rage

RePack

fifa19

RePack

Assassins Creed: Odyssey

RePack

NEED FOR SPEED™ PAYBACK

4 сезон

9 сезон

Бесстыжие 9 сезон

Все сериалы

все сериалы на PB.wtf

RePack

FAR CRY 5
  

Раскол / Fractured (Адам Гираш / Adam Gierasch) [2013, США, триллер, HDRip, Любительский (одноголосый) pb.wtf

Раскол через торрент pb.wtf

Размер: 989 MB | Добавлен: 6 лет 4 мес. назад | Торрент скачан:217 раз
Скачать  

27-06-2014 14:34 Раскол Скачать торрент  

Раскол / Fractured


Год выпуска: 2013
Страна: США
Жанр:триллер
Продолжительность:01:30:37
Перевод:Любительский (одноголосый)[datynet]

Субтитры: Нет
Режиссер:Адам Гираш / Adam Gierasch

  • В ролях:

    Каллум Блу (Dylan / Jaron), Винни Джонс (Quincy), Эшлинн Йенни (Brandy), Николь Лалиберт (Marlena), Джон Эйз (Reggie), Эрик Ф. Адамс (Gary), Стив ДеМартино (Bartender), Лили Вирджиния Филсон (Hell Girl with Tattoo), Брент Генри (Johnny), Джанин Хилл (Coma Patient), Саманта Энн Хаффман (Hell Girl), Индиго (Holly)

  • Описание:
    История Дилана Уайта, ресторанного повара, встречающегося с милашкой по имени Брэнди. Но в результате некоторых таинственных событий Дилан узнает, что в его прошлом есть темные тайны.

  • Мировая премьера:14 апреля 2013


      Качество: HDRip
      Формат: AVI
      Видео кодек: XviD
      Аудио кодек:MP3
      Видео: XviD, 720x304 (2.35:1), 1325 kbps, 23,976 fps, 0,253 bpp
      Аудио: MP3 / 2.0 / 44 kHz / 192 kbps /


    Код:

    General
    Complete name                            : D:\Торенты\Fractured.avi
    Format                                   : AVI
    Format/Info                              : Audio Video Interleave
    File size                                : 989 MiB
    Duration                                 : 1h 30mn
    Overall bit rate                         : 1 527 Kbps

    Writing library                          : VirtualDub build 34753/release

    Video
    ID                                       : 0
    Format                                   : MPEG-4 Visual
    Format profile                           : Simple@L5
    Format settings, BVOP                    : No
    Format settings, QPel                    : No
    Format settings, GMC                     : No warppoints
    Format settings, Matrix                  : Default (H.263)
    Codec ID                                 : XVID
    Codec ID/Hint                            : XviD
    Duration                                 : 1h 30mn
    Bit rate                                 : 1 325 Kbps
    Width                                    : 720 pixels
    Height                                   : 304 pixels
    Display aspect ratio                     : 2.35:1
    Frame rate                               : 23.976 fps
    Color space                              : YUV
    Chroma subsampling                       : 4:2:0
    Bit depth                                : 8 bits
    Scan type                                : Progressive
    Compression mode                         : Lossy
    Bits/(Pixel*Frame)                       : 0.253
    Stream size                              : 859 MiB (87%)
    Writing library                          : Lavc55.55.104

    Audio
    ID                                       : 1
    Format                                   : MPEG Audio
    Format version                           : Version 1
    Format profile                           : Layer 3
    Codec ID                                 : 55
    Codec ID/Hint                            : MP3
    Duration                                 : 1h 30mn
    Bit rate mode                            : Constant
    Bit rate                                 : 192 Kbps
    Channel(s)                               : 2 channels
    Sampling rate                            : 44.1 KHz
    Compression mode                         : Lossy
    Stream size                              : 124 MiB (13%)
    Alignment                                : Split accross interleaves
    Interleave, duration                     : 42 ms (1.00 video frame)
    Interleave, preload duration             : 500 ms

    Скриншоты:

    Каталог Новинок (Фильмы-трейлеры, Игры, Сериалы, Мультфильмы)

    © Оформление by Raven
    pb.wtf



  • Скачать Раскол через торрент http://i61.fastpic.ru/big/2014/0627/73/d47b40ea44d2a9b07ac5a2d6c53ce873.jpg Скачать фильм Раскол через торрент бесплантно в хорошем качестве Описание:История Дилана Уайта, ресторанного повара, встречающегося с милашкой по имени Брэнди. Но в результате некоторых таинственных ... 10 10 4
    Торрент: Зарегистрирован [2014-06-27 14:34] · скачан: 217 раз
    Статус: T временная
    Размер: 989 MB
    Как cкачать? Как скачать Раскол через торрент | qTorrent

    28-11-2019 20:33  

    Отключить всю рекламу на сайте

      Дорогой пользователь! Огромная просьба, поблагодарите релизера, оцените раздачу и оставьте свои комментарий, если Вы скачали Раскол через торрент бесплатно! Внесите свою лепту в развитие PiratBit!
      Комментировать посты могут только пользователи прошедшие не сложную регистрацию
      Показать сообщения:    

      Раскол через торрент
      Скачать бесплатно Раскол
      Раскол скачать торрент
      Раскол смотреть онлайн
      Cкачать фильм Раскол бесплатно
      Раскол скачать торрент в хорошем качестве
      Раскол смотреть онлайн бесплатно в хорошем качестве


      Вы не можете начинать темы
      Вы не можете отвечать на сообщения
      Вы не можете редактировать свои сообщения
      Вы не можете удалять свои сообщения
      Вы не можете голосовать в опросах
      Вы не можете прикреплять файлы к сообщениям
      Вы можете скачивать файлы