Всегда рабочее зеркало без VPN и Proxy просто перед .vidak.icu напиши любое слово или цифру, Пример http://l56v.vidak.icu

MVO

MVO

1 сезон

1

1 сезон

iTunes

1 сезон

13

1 сезон

Deluxe

pack

Рекомендуем

Repack

30

ВАЖНО

RePack

MK11

RePack

jed

RePack

fifa19

RePack

RDR2

RePack

NEED FOR SPEED™ PAYBACK

Кинопоиск HD

6 сезон

 Острые козырьки 6 сезон

Все сериалы

все сериалы на PB.wtf

RePack

FAR CRY 5
  
Magnet ссылка

Повелитель страниц / The Pagemaster (Пиксоут Хант, Джо Джонстон) [1994 г., приключения, семейный, DVDRip, Профессиональный многоголосый] pb.wtf

Повелитель страниц через торрент pb.wtf

Размер: 1.37 GB | Добавлен: 8 лет 1 мес. назад | Торрент скачан:108 раз
Смотреть онлайн Повелитель страниц | Скачать    Ребята, помогите собрать деньги на оплату серверов!!!

27-06-2014 18:07 Повелитель страниц Скачать торрент  

Повелитель страниц / The Pagemaster
Год выпуска: 1994
Страна: США
Жанр: приключения, семейный
Продолжительность: 01:15:00
Перевод: Профессиональный многоголосый

Режиссер: Пиксоут Хант, Джо Джонстон
Продюссер: Пол Герц, Клер А. Глидден, Майкл Р. Джойс
Сценарий: Дэвид Киршнер, Дэвид Касчи, Эрни Контрерас

Бюджет: $27 000 000
Премьера в мире: 23 ноября 1994




В ролях: Маколей Калкин, Кристофер Ллойд, Алексис Киршнер, Джессика Киршнер, Гай Мэнскер, Брэндон С. МакКэй

Описание: Прекрасное сочетание актерского кино и мультипликации! Десятилетний пессимист Ричард Тайлер (давно всем известный малолетний ветеран экрана Маколэй Калкин) строит свою жизнь, основываясь на статистике, и боится практически всего на свете. Его родители пытались развить в сыне храбрость, но их попытки принесли мало пользы. Как-то раз, пытаясь спастись от ливня с грозой, забегает в первое попавшееся на пути здание, которое оказывается библиотекой. В этой библиотеке может произойти любое чудо. Теперь этот мальчик, превратившись в мультяшку, вместе со своими любимыми героями книг отправляется в увлекательное мультипликационное путешествие, где сказочный Повелитель Страниц (Кристофер Ллойд в роли библиотекаря) пронесет его по просторам волшебной страны, научит оказывать помощь другим и преодолевать любые трудности на своем пути!

Качество: DVDRip
Формат: AVI
Видео кодек: DivX
Аудио кодек: AC3
Видео: MPEG4, DivX 5, 720x384 (1.875), 23.976 fps, 1 690 Kbps (0.255 bit/pixel)
Аудио#1: AC-3, 48.0 KHz, 5.1ch, 448 Kbps, CBR
Аудио#2: AC-3, 48.0 KHz, 5.1 ch, 448 Kbps, CBR
скриншот   скриншот   скриншот  

Общее
Полное имя : \\Rt-n14u\elements\Download2\Complete\Pagemaster.avi
Формат : AVI
Формат/Информация : Audio Video Interleave
Размер файла : 1,37 Гбайт
Продолжительность : 1 ч. 15 м.
Общий поток : 2600 Кбит/сек
Программа кодирования : VirtualDubMod 1.5.10.2 (build 2540/release)
Библиотека кодирования : VirtualDubMod build 2540/release

Видео
Идентификатор : 0
Формат : MPEG-4 Visual
Параметр BVOP формата : 1
Параметр QPel формата : Нет
Параметр GMC формата : Без точки перехода
Параметр матрицы формата : Default (H.263)
Режим смешивания : Сжатый битовый поток
Идентификатор кодека : DX50
Идентификатор кодека/Подсказка : DivX 5
Продолжительность : 1 ч. 15 м.
Битрейт : 1690 Кбит/сек
Ширина : 720 пикселей
Высота : 384 пикселя
Соотношение сторон : 1,85:1
Частота кадров : 23,976 кадра/сек
Цветовое пространство : YUV
Субдискретизация насыщенности : 4:2:0
Битовая глубина : 8 бит
Тип развёртки : Прогрессивная
Метод сжатия : С потерями
Бит/(Пиксели*Кадры) : 0.255
Размер потока : 912 Мбайт (65%)
Библиотека кодирования : DivX 5.2.1 (WaffleDay) (UTC 2004-09-08)

Аудио #1
Идентификатор : 1
Формат : AC-3
Формат/Информация : Audio Coding 3
Расширение режима : CM (complete main)
Параметр Endianness формата : Big
Идентификатор кодека : 2000
Продолжительность : 1 ч. 15 м.
Вид битрейта : Постоянный
Битрейт : 448 Кбит/сек
Каналы : 6 каналов
Расположение каналов : Front: L C R, Side: L R, LFE
Частота : 48,0 КГц
Битовая глубина : 16 бит
Метод сжатия : С потерями
Размер потока : 242 Мбайт (17%)
Выравнивание : Разделение по промежуткам
Продолжительность промежутка : 42 мс. (1,00 видеокадр)
Время предзагрузки промежутка : 500 мс.

Аудио #2
Идентификатор : 2
Формат : AC-3
Формат/Информация : Audio Coding 3
Расширение режима : CM (complete main)
Параметр Endianness формата : Big
Идентификатор кодека : 2000
Продолжительность : 1 ч. 15 м.
Вид битрейта : Постоянный
Битрейт : 448 Кбит/сек
Каналы : 6 каналов
Расположение каналов : Front: L C R, Side: L R, LFE
Частота : 48,0 КГц
Битовая глубина : 16 бит
Метод сжатия : С потерями
Размер потока : 242 Мбайт (17%)
Выравнивание : Разделение по промежуткам
Продолжительность промежутка : 42 мс. (1,00 видеокадр)
Время предзагрузки промежутка : 500 мс.

pb.wtf



Скачать Повелитель страниц через торрент https://pic1.kartinco.top/images/61/wr9od.jpg Скачать, смотреть онлайн Повелитель страниц бесплантно в хорошем качестве Описание: Прекрасное сочетание актерского кино и мульликации! Десятилетний пессимист Ричард Тайлер (давно всем известный малолетний ... 10 10 7
Info! Золотая раздача, скачанное не засчитывается.
Торрент: Зарегистрирован [2014-06-27 18:07] · скачан: 108 раз
Статус: √ проверено
Размер: 1.37 GB
Как cкачать? Как скачать Повелитель страниц через торрент | UTorrent

28-11-2019 20:33  

Отключить вcю реклaмy на сайте

    Дорогой пользователь! Огромная просьба, поблагодарите релизера, оцените раздачу и оставьте свои комментарий, если Вы скачали Повелитель страниц через торрент бесплатно!
    Комментировать посты могут только пользователи прошедшие не сложную регистрацию
    Показать сообщения:    

    Повелитель страниц через торрент
    Скачать бесплатно Повелитель страниц
    Повелитель страниц скачать торрент
    Повелитель страниц смотреть онлайн
    Cкачать фильм Повелитель страниц бесплатно
    Повелитель страниц скачать торрент в хорошем качестве
    Повелитель страниц смотреть онлайн бесплатно в хорошем качестве


    Вы не можете начинать темы
    Вы не можете отвечать на сообщения
    Вы не можете редактировать свои сообщения
    Вы не можете удалять свои сообщения
    Вы не можете голосовать в опросах
    Вы не можете прикреплять файлы к сообщениям
    Вы можете скачивать файлы