Всегда рабочее зеркало без VPN и Proxy просто перед .vidak.icu напиши любое слово или цифру, Пример http://x5e6.vidak.icu

Лицензия

MVO

1 сезон

1

1 сезон

iTunes

1 сезон

13

1 сезон

Deluxe

pack

Рекомендуем

Repack

30

ВАЖНО

RePack

MK11

RePack

jed

RePack

fifa19

RePack

RDR2

RePack

NEED FOR SPEED™ PAYBACK

Кинопоиск HD

6 сезон

 Острые козырьки 6 сезон

Все сериалы

все сериалы на PB.wtf

RePack

FAR CRY 5
  
Magnet ссылка

Провинциалка / Hick (Дерик Мартини / Derick Martini) [2011, США, драма, комедия, HDRip, Многоголосый, закадровый-Лицензия] pb.wtf

Провинциалка через торрент pb.wtf

Размер: 1.37 GB | Добавлен: 8 лет 1 мес. назад | Торрент скачан:177 раз
Смотреть онлайн Провинциалка | Скачать    Ребята, помогите собрать деньги на оплату серверов!!!

27-06-2014 19:35 Провинциалка Скачать торрент  

Провинциалка / Hick
«Trouble travels together»

Год выпуска: 2011
Страна: США
Жанр:драма, комедия
Продолжительность:01:37:40
Перевод:Многоголосый, закадровый

Субтитры: Нет
Режиссер:Дерик Мартини / Derick Martini

  • В ролях:

    Хлоя Грейс Морец (Luli McMullen), Эдди Редмэйн (Eddie Kreezer), Рэй МакКиннон (Lloyd), Рори Калкин (Clement), Джульетт Льюис (Tammy), Блейк Лайвли (Glenda), Алек Болдуин (Beau), Кристофер Коакли (Kid #1), Энсон Маунт (Nick), Тим Парати (Male Barfly), Роберт Бэйкер (Ray), Роберт Дж. Стефенсон (Lux)

  • Описание:
    Тринадцатилетняя девчонка из Небраски, Лули осталась дома одна без родителей. В руки ей попадает отцовский пистолет 45 калибра. Не долго думая, Лули отправляется подальше от постоянных пьяных родительских скандалов в Вегас, захватив с собой пистолет. Перед девочкой открывается мир свободного насилия и жестоких преступлений.

  • Мировая премьера:10 сентября 2011


      Качество: HDRip
      Формат: AVI
      Видео кодек: XviD
      Аудио кодек:AC3
      Видео: XviD, 720x304 (2.35:1), 1555 kbps, 23,976 fps, 0,296 bpp
      Аудио: AC3 / 5.1 / 48 kHz / 448 kbps / 16 bit


    Код:

    General
    Complete name                            : D:\Торенты\Proviuncialka.2011.P.HDRip.1400Mb.avi
    Format                                   : AVI
    Format/Info                              : Audio Video Interleave
    File size                                : 1.37 GiB
    Duration                                 : 1h 37mn
    Overall bit rate                         : 2 013 Kbps
    Writing application                      : VirtualDubMod 1.5.10.2 (build 2540/release)
    Writing library                          : VirtualDubMod build 2540/release

    Video
    ID                                       : 0
    Format                                   : MPEG-4 Visual
    Format profile                           : Advanced [email protected]
    Format settings, BVOP                    : 2
    Format settings, QPel                    : No
    Format settings, GMC                     : No warppoints
    Format settings, Matrix                  : Default (H.263)
    Codec ID                                 : XVID
    Codec ID/Hint                            : XviD
    Duration                                 : 1h 37mn
    Bit rate                                 : 1 555 Kbps
    Width                                    : 720 pixels
    Height                                   : 304 pixels
    Display aspect ratio                     : 2.35:1
    Frame rate                               : 23.976 fps
    Color space                              : YUV
    Chroma subsampling                       : 4:2:0
    Bit depth                                : 8 bits
    Scan type                                : Progressive
    Compression mode                         : Lossy
    Bits/(Pixel*Frame)                       : 0.296
    Stream size                              : 1.06 GiB (77%)
    Writing library                          : XviD 1.2.1 (UTC 2008-12-04)

    Audio
    ID                                       : 1
    Format                                   : AC-3
    Format/Info                              : Audio Coding 3
    Mode extension                           : CM (complete main)
    Codec ID                                 : 2000
    Duration                                 : 1h 37mn
    Bit rate mode                            : Constant
    Bit rate                                 : 448 Kbps
    Channel(s)                               : 6 channels
    Channel positions                        : Front: L C R, Side: L R, LFE
    Sampling rate                            : 48.0 KHz
    Bit depth                                : 16 bits
    Compression mode                         : Lossy
    Stream size                              : 313 MiB (22%)
    Alignment                                : Split accross interleaves
    Interleave, duration                     : 42 ms (1.00 video frame)
    Interleave, preload duration             : 500 ms

    Скриншоты:

    Каталог Новинок (Фильмы-трейлеры, Игры, Сериалы, Мультфильмы)

    © Оформление by Raven
    pb.wtf



  • Скачать Провинциалка через торрент http://i63.fastpic.ru/big/2014/0627/5d/f8de78a20b8441fee2e9076560e6895d.jpg Скачать, смотреть онлайн Провинциалка бесплантно в хорошем качестве Описание:Тринадцатилетняя девчонка из Небраски, Лули осталась дома одна без родителей. В руки ей попадает отцовский пистолет 45 калибра. Не ... 9.8 10 5
    Торрент: Зарегистрирован [2014-06-27 19:35] · скачан: 177 раз
    Статус: √ проверено
    Размер: 1.37 GB
    Как cкачать? Как скачать Провинциалка через торрент | UTorrent

    % Раздел Тема Автор DL S | L
    Фильмы 2012 [ 1.46 GB ] Провинциалка / Hick [2011 DVDRip VO] chenya28 Скачать
    1 | 0
    T Фильмы 2011 [ 1.52 GB ] Провинциалка / Hick [2011 HDRip VO] makarevich Скачать
    1 | 0

    28-11-2019 20:33  

    Отключить вcю реклaмy на сайте

      Дорогой пользователь! Огромная просьба, поблагодарите релизера, оцените раздачу и оставьте свои комментарий, если Вы скачали Провинциалка через торрент бесплатно!
      Комментировать посты могут только пользователи прошедшие не сложную регистрацию
      Показать сообщения:    

      Провинциалка через торрент
      Скачать бесплатно Провинциалка
      Провинциалка скачать торрент
      Провинциалка смотреть онлайн
      Cкачать фильм Провинциалка бесплатно
      Провинциалка скачать торрент в хорошем качестве
      Провинциалка смотреть онлайн бесплатно в хорошем качестве


      Вы не можете начинать темы
      Вы не можете отвечать на сообщения
      Вы не можете редактировать свои сообщения
      Вы не можете удалять свои сообщения
      Вы не можете голосовать в опросах
      Вы не можете прикреплять файлы к сообщениям
      Вы можете скачивать файлы