Anonymous, доброй ночи, присоединяйтесь к нам в Telegram!, здесь всегда актуальный адрес сайта, оперативная поддержка и многое другое!

>

5.6

iTunes

7.4

MVO

5.7

MVO

1

7.7

1 сезон

6.8

iTunes

7.3

1 сезон

13

6.7

1 сезон

8.3

RePack

30

ULTIMATE

pack

9.9

Лицензия

ВАЖНО

ИГРА 18+

pack

7.3

RePack

MK11

7.7

RePack

jed

7.8

RePack

fifa19

8.5

RePack

RDR2

RePack

NEED FOR SPEED™ PAYBACK

4 сезон

9 сезон

Бесстыжие 9 сезон

Все сериалы

все сериалы на PB.wtf

RePack

FAR CRY 5

Anonymous, доброй ночи, мы катастрофически не успеваем собрать деньги на оплату серверов, помогите нам пожалуйста 5,10,15р., для нас важна любая помощь . В качестве благодарности мы отключим Вам всю рекламу на сайте (укажите свой ник в строку Ваше имя)!

×
  
Magnet ссылка

Люди в черном / Men in Black (1997-2012) BDRip 720p / 60 FPS / Трилогия pb.wtf

Люди в черном через торрент pb.wtf

Размер: 23.94 GB | Добавлен: 7 лет 3 мес. назад | Торрент скачан:321 раз
Смотреть онлайн Люди в черном | Скачать    Ребята, помогите собрать деньги на оплату серверов!!!

28-06-2014 16:28 Люди в черном Скачать торрент  

Люди в черном / Men in Black
Жанр: Фантастика, Боевик, Комедия
Года производства: 1997, 2002, 2012
Произведено: США
Продолжительность: 01:37:59; 01:28:08; 01:45:50


Комедийный боевик ''Люди в черном: Трилогия'' переносит нас в мир тайных заданий и еще более тайных агентов.Инопланетяне давно не секрет для человечества, но мало кто знает, что они давно проживают на нашей Земле.Чтобы упорядочить земную и внеземную жизнь, а так же для защиты населения нашей планеты, была создана сверхсекретная организация.

✔ Дополнительная информация
В 2,5 раза больше кадров!
В 2,5 раза плавнее! (59,94 fps)
Люди в черном / Men in Black
Год выпуска: 1997
Страна: США
Жанр: фантастика, комедия
Продолжительность: 01:37:58
Перевод: Профессиональный [Дубляж]
Субтитры: Rus (форс.), Rus (полные), Eng (полные)

Режиссер: Барри Зонненфельд / Barry Sonnenfeld
В ролях: Томми Ли Джонс (Kay), Уилл Смит (Jay), Винсент Д’Онофрио (Edgar), Линда Фиорентино (Laurel Weaver), Рип Торн (Zed), Тони Шэлуб (Jeebs), Шиван Фэллон (Beatrice), Майк Нассбаум (Gentle Rosenburg), Джон Грайз (Van Driver), Фредрик Лене (INS Agent Janus), Серхио Кальдерон (José), Карел Стрёйкен (Arquillian)

Описание: Они - самый большой секрет Земли. Они работают на неофициальное правительственное агентство, регулирующее деятельность инопланетян на Земле.
Они - это лучшая, последняя и единственная линия защиты Земли от отбросов вселенной. Их работа секретна, их оружие совершенно, им нет равных, они не оставляют следов. Они - это Люди в черном.

kinopoisk.ru: 8.050 (121 027)
imdb.com: 7.20 (300 452)
MPAA: PG-13 - Детям до 13 лет просмотр не желателен

Качество: BDRip 720p
Формат: MKV
Видео кодек: AVC
Аудио кодек: AC3
Видео: AVC, 1280x696 (16:9), 10187 kbps, 59,940 fps, 0,191 bpp
Аудио русский: AC3 / 5.1 / 48 kHz / 448 kbps / 16 bit ||
Аудио английский: AC3 / 5.1 / 48 kHz / 640 kbps / 16 bit
Аудио : AC3 5.1, 448 kb/s, R5 (отдельно)
Аудио: AC3 5.1, 640 kb/s, Карусель (отдельно)
Аудио: AC3 5.1, 640 kb/s, А.Гаврилов (отдельно)
Аудио : AC3 5.1, 640 kb/s, Ю.Живов (отдельно)
Аудио: AC3 2.0, 320 kb/s, Хрусталев (VHS) (отдельно)

Люди в чёрном появляются в 20 эпизоде 3 сезона сериала «Секретные Материалы» (1993-2002) и упоминаются в этом же сериале в 15 эпизоде 9 сезона.
Продюсер ленты специально заказал для актёров часы с ассиметричными корпусами, так как посчитал, что так образ будет лучше сочетаться. Тогда были выпущены специальные реплики классических моделей Hamilton Ventura с черным циферблатом.
Клинту Иствуду предлагали роль K, но он отказался.
Агента J могли сыграть Крис О`Доннелл и Девид Швиммер.
Квентин Тарантино мог занять место режиссёра.
Уилл Смит после прочтения сценария не хотел играть в фильме, но его жена (Джада Пинкетт Смит) убедила его согласиться.
На экране наблюдения за пришельцами можно увидеть много знаменитостей, например: Сильвестра Сталлоне, Дэнни ДеВито, Айзека Мизрахи, Стивена Спилберга, Джорджа Лукаса и дочь режиссера Хлою Сонненфельд.

Общее
Уникальный идентификатор : 237715145936625591054072583376921835362 (0xB2D64593553E52F5BA7E0B27317E3762)
Полное имя : C:\закачки\Люди в черном 720p 60fps\Люди в черном 1\Люди в черном 1 720p 60fps.mkv
Формат : Matroska
Версия формата : Version 4 / Version 2
Размер файла : 7,87 Гбайт
Продолжительность : 1 ч. 37 м.
Общий поток : 11,5 Мбит/сек
Дата кодирования : UTC 2014-06-14 10:26:18
Программа кодирования : mkvmerge v7.0.0 ('Where We Going') 64bit built on Jun 9 2014 15:16:27
Библиотека кодирования : libebml v1.3.0 + libmatroska v1.4.1
DURATION : 01:37:58.880000000
NUMBER_OF_FRAMES : 183715
NUMBER_OF_BYTES : 470310400
_STATISTICS_WRITING_APP : mkvmerge v7.0.0 ('Where We Going') 64bit built on Jun 9 2014 15:16:27
_STATISTICS_WRITING_DATE_UTC : 2014-06-14 10:26:18
_STATISTICS_TAGS : BPS DURATION NUMBER_OF_FRAMES NUMBER_OF_BYTES

Видео
Идентификатор : 1
Формат : AVC
Формат/Информация : Advanced Video Codec
Профиль формата : High@L4.1
Параметр CABAC формата : Да
Параметр ReFrames формата : 9 кадров
Идентификатор кодека : V_MPEG4/ISO/AVC
Продолжительность : 1 ч. 37 м.
Битрейт : 10,2 Мбит/сек
Ширина : 1280 пикселей
Высота : 696 пикселей
Соотношение сторон : 1,85:1
Режим частоты кадров : Постоянный
Частота кадров : 59,880 кадров/сек
Частота кадров в оригинале : 59,940 кадров/сек
Цветовое пространство : YUV
Субдискретизация насыщенности : 4:2:0
Битовая глубина : 8 бит
Тип развёртки : Прогрессивная
Бит/(Пиксели*Кадры) : 0.191
Размер потока : 6,97 Гбайт (89%)
Библиотека кодирования : x264 core 130 r2273 b3065e6
Настройки программы : cabac=1 / ref=9 / deblock=1:-2:-2 / analyse=0x3:0 / me=umh / subme=9 / psy=1 / psy_rd=1.00:0.10 / mixed_ref=1 / me_range=24 / chroma_me=0 / trellis=1 / 8x8dct=1 / cqm=0 / deadzone=21,11 / fast_pskip=0 / chroma_qp_offset=-3 / threads=12 / lookahead_threads=1 / sliced_threads=0 / nr=0 / decimate=0 / interlaced=0 / bluray_compat=0 / constrained_intra=0 / bframes=6 / b_pyramid=2 / b_adapt=2 / b_bias=0 / direct=1 / weightb=1 / open_gop=0 / weightp=2 / keyint=599 / keyint_min=59 / scenecut=40 / intra_refresh=0 / rc=crf / mbtree=0 / crf=16.0 / qcomp=0.60 / qpmin=0 / qpmax=69 / qpstep=4 / ip_ratio=1.40 / pb_ratio=1.30 / aq=1:0.90
Язык : English
Default : Да
Forced : Нет
DURATION : 01:37:58.846000000
NUMBER_OF_FRAMES : 352378
NUMBER_OF_BYTES : 7651118547
_STATISTICS_WRITING_APP : mkvmerge v7.0.0 ('Where We Going') 64bit built on Jun 9 2014 15:16:27
_STATISTICS_WRITING_DATE_UTC : 2014-06-14 10:26:18
_STATISTICS_TAGS : BPS DURATION NUMBER_OF_FRAMES NUMBER_OF_BYTES

Аудио #1
Идентификатор : 2
Формат : AC-3
Формат/Информация : Audio Coding 3
Расширение режима : CM (complete main)
Параметр Endianness формата : Big
Идентификатор кодека : A_AC3
Продолжительность : 1 ч. 37 м.
Вид битрейта : Постоянный
Битрейт : 448 Кбит/сек
Каналы : 6 каналов
Расположение каналов : Front: L C R, Side: L R, LFE
Частота : 48,0 КГц
Битовая глубина : 16 бит
Метод сжатия : С потерями
Размер потока : 314 Мбайт (4%)
Заголовок : Dub
Язык : Russian
Default : Да
Forced : Нет

Аудио #2
Идентификатор : 6
Формат : AC-3
Формат/Информация : Audio Coding 3
Расширение режима : CM (complete main)
Параметр Endianness формата : Big
Идентификатор кодека : A_AC3
Продолжительность : 1 ч. 37 м.
Вид битрейта : Постоянный
Битрейт : 640 Кбит/сек
Каналы : 6 каналов
Расположение каналов : Front: L C R, Side: L R, LFE
Частота : 48,0 КГц
Битовая глубина : 16 бит
Метод сжатия : С потерями
Размер потока : 449 Мбайт (6%)
Заголовок : Original
Язык : English
Default : Нет
Forced : Нет

Текст #1
Идентификатор : 3
Формат : UTF-8
Идентификатор кодека : S_TEXT/UTF8
Идентификатор кодека/Информация : UTF-8 Plain Text
Заголовок : Forced
Язык : Russian
Default : Да
Forced : Нет

Текст #2
Идентификатор : 4
Формат : UTF-8
Идентификатор кодека : S_TEXT/UTF8
Идентификатор кодека/Информация : UTF-8 Plain Text
Заголовок : Full
Язык : Russian
Default : Нет
Forced : Нет

Текст #3
Идентификатор : 5
Формат : UTF-8
Идентификатор кодека : S_TEXT/UTF8
Идентификатор кодека/Информация : UTF-8 Plain Text
Заголовок : Full
Язык : English
Default : Нет
Forced : Нет

Меню
00:00:00.000 : en:Chapter 00
00:09:46.419 : en:Chapter 01
00:12:46.807 : en:Chapter 02
00:18:12.341 : en:Chapter 03
00:25:31.446 : en:Chapter 04
00:29:14.544 : en:Chapter 05
00:37:19.195 : en:Chapter 06
00:43:18.554 : en:Chapter 07
00:49:58.328 : en:Chapter 08
00:54:29.391 : en:Chapter 09
01:00:51.522 : en:Chapter 10
01:06:24.689 : en:Chapter 11
01:08:55.548 : en:Chapter 12
01:14:56.909 : en:Chapter 13
01:19:39.149 : en:Chapter 14
01:29:49.634 : en:Chapter 15
Люди в черном 2 / Men in Black II
Год выпуска: 2002
Страна: США
Жанр: фантастика, боевик, комедия
Продолжительность: 01:28:08
Перевод: Профессиональный [Дубляж]
Субтитры: Rus (форс.), Rus (полные), Eng (полные)

Режиссер: Барри Зонненфельд / Barry Sonnenfeld
В ролях: Томми Ли Джонс (Kay), Уилл Смит (Jay), Лара Флинн Бойл (Serleena), Джонни Ноксвил (Scrad / Charlie), Розарио Доусон (Laura Vasquez), Тони Шэлуб (Jack Jeebs), Рип Торн (Zed), Патрик Варбертон (Agent Tee), Джек Келер (Ben), Дэвид Кросс (Newton), Коломба Якобсен-Дерстин (Hailey), Питер Спеллос (Captain Larry Bridgewater, The Motorman)

Описание: Много лет назад лучший агент организации «Люди в черном» Кей получил задание особой важности. Ему поручили надёжно спрятать таинственный космический артефакт «Светоч». Проходит 25 лет и на Землю прилетает уничтожительница миров Серлина. Приняв образ сексапильной фотомодели, она начала поиски «Светоча». Чтобы не дать ни единого шанса Серлине артефакт нужно отыскать раньше неё, но есть одна проблема - после того как агенты Кей и Джей уничтожили четыре года назад хищного инопланетного таракана, Кею стёрли память. Теперь он мирно трудится в Почтовом департаменте. У него нет даже малейшего воспоминания о своём прошлом, и Джею, для спасения мира, во чтобы то ни стало нужно найти способ восстановить его память.

kinopoisk.ru: 7.392 (70 995)
imdb.com: 6.00 (192 236)
MPAA: PG-13 - Детям до 13 лет просмотр не желателен

Качество: BDRip 720p
Формат: MKV
Видео кодек: AVC
Аудио кодек: AC3
Видео: AVC, 1280x696 (16:9), 6725 kbps, 59,940 fps, 0,126 bpp
Аудио русский: AC3 / 5.1 / 48 kHz / 640 kbps / 16 bit ||
Аудио английский: AC3 / 5.1 / 48 kHz / 640 kbps / 16 bit
Аудио : AC3 5.1, 640 kb/s, Карусель (отдельно)
Аудио : AC3 5.1, 640 kb/s, А.Гаврилов (отдельно)
Аудио : AC3 5.1, 640 kb/s, Ю.Живов (отдельно)
Аудио 6: AC3 5.1, 640 kb/s, П.Гланц (отдельно)


Девочку на почте сыграла дочь Барри Зонненфельда.
В эпизодических ролях снялись сыновья Уилла Смита и дочь Томми Ли Джонса, а также такие звезды, как Шакил О’Нил, Тайгер Вудс, Венус Уильямс и даже Майкл Джексон.
Фамке Янссен должна была сыграть Серлину, и даже снялась в нескольких эпизодах, но смерть в семье заставила её покинуть проект.
Съёмки фильма начались в июне 2001 года в Нью-Йорке и были окончены в октябре того же года.
Изначально в финальной сцене фильма фигурировали здания Всемирного Торгового Центра, однако после трагических событий 11 сентября 2001 их изображение было заменено изображением здания Крайслер-билдинг.
Конец фильма пародирует конец первого, где наша галактика оказывается всего-лишь одним из многих шариков для детской игры исполинских инопланетян.



В первой части фильма у Джека Джибса косил правый глаз, во второй — левый.
В сцене, где Джей и Кей общаются с расой крошечных существ живущих в камере хранения. Кей забирает у них свои электронные часы, бывшие святыней для пришельцев и стоявшие в центре площади. Чтобы последние не огорчались, Джей оставляет им свои часы. Через несколько секунд диалога в кадре снова площадь с часами, где всё ещё часы Кея.

Общее
Уникальный идентификатор : 231457068699703605884348479848762541550 (0xAE21028BBF7D09979B16C2EE394F85EE)
Полное имя : C:\закачки\Люди в черном 720p 60fps\Люди в черном 2\Люди в черном 2 720p 60fps.mkv
Формат : Matroska
Версия формата : Version 4 / Version 2
Размер файла : 5,03 Гбайт
Продолжительность : 1 ч. 28 м.
Общий поток : 8168 Кбит/сек
Дата кодирования : UTC 2014-06-14 15:26:13
Программа кодирования : mkvmerge v7.0.0 ('Where We Going') 64bit built on Jun 9 2014 15:16:27
Библиотека кодирования : libebml v1.3.0 + libmatroska v1.4.1
DURATION : 01:24:07.500000000
NUMBER_OF_FRAMES : 1158
NUMBER_OF_BYTES : 44461
_STATISTICS_WRITING_APP : mkvmerge v7.0.0 ('Where We Going') 64bit built on Jun 9 2014 15:16:27
_STATISTICS_WRITING_DATE_UTC : 2014-06-14 15:26:13
_STATISTICS_TAGS : BPS DURATION NUMBER_OF_FRAMES NUMBER_OF_BYTES

Видео
Идентификатор : 1
Формат : AVC
Формат/Информация : Advanced Video Codec
Профиль формата : High@L4.1
Параметр CABAC формата : Да
Параметр ReFrames формата : 9 кадров
Идентификатор кодека : V_MPEG4/ISO/AVC
Продолжительность : 1 ч. 28 м.
Битрейт : 6726 Кбит/сек
Ширина : 1280 пикселей
Высота : 696 пикселей
Соотношение сторон : 1,85:1
Режим частоты кадров : Постоянный
Частота кадров : 59,880 кадров/сек
Частота кадров в оригинале : 59,940 кадров/сек
Цветовое пространство : YUV
Субдискретизация насыщенности : 4:2:0
Битовая глубина : 8 бит
Тип развёртки : Прогрессивная
Бит/(Пиксели*Кадры) : 0.126
Размер потока : 4,14 Гбайт (82%)
Библиотека кодирования : x264 core 130 r2273 b3065e6
Настройки программы : cabac=1 / ref=9 / deblock=1:-2:-2 / analyse=0x3:0 / me=umh / subme=9 / psy=1 / psy_rd=1.00:0.10 / mixed_ref=1 / me_range=24 / chroma_me=0 / trellis=1 / 8x8dct=1 / cqm=0 / deadzone=21,11 / fast_pskip=0 / chroma_qp_offset=-3 / threads=12 / lookahead_threads=1 / sliced_threads=0 / nr=0 / decimate=0 / interlaced=0 / bluray_compat=0 / constrained_intra=0 / bframes=6 / b_pyramid=2 / b_adapt=2 / b_bias=0 / direct=1 / weightb=1 / open_gop=0 / weightp=2 / keyint=599 / keyint_min=59 / scenecut=40 / intra_refresh=0 / rc=crf / mbtree=0 / crf=16.0 / qcomp=0.60 / qpmin=0 / qpmax=69 / qpstep=4 / ip_ratio=1.40 / pb_ratio=1.30 / aq=1:0.90
Язык : English
Default : Да
Forced : Нет
DURATION : 01:28:08.222000000
NUMBER_OF_FRAMES : 316976
NUMBER_OF_BYTES : 4550302239
_STATISTICS_WRITING_APP : mkvmerge v7.0.0 ('Where We Going') 64bit built on Jun 9 2014 15:16:27
_STATISTICS_WRITING_DATE_UTC : 2014-06-14 15:26:13
_STATISTICS_TAGS : BPS DURATION NUMBER_OF_FRAMES NUMBER_OF_BYTES

Аудио #1
Идентификатор : 2
Формат : AC-3
Формат/Информация : Audio Coding 3
Расширение режима : CM (complete main)
Параметр Endianness формата : Big
Идентификатор кодека : A_AC3
Продолжительность : 1 ч. 28 м.
Вид битрейта : Постоянный
Битрейт : 640 Кбит/сек
Каналы : 6 каналов
Расположение каналов : Front: L C R, Side: L R, LFE
Частота : 48,0 КГц
Битовая глубина : 16 бит
Метод сжатия : С потерями
Размер потока : 403 Мбайт (8%)
Заголовок : Dub
Язык : Russian
Default : Да
Forced : Нет

Аудио #2
Идентификатор : 3
Формат : AC-3
Формат/Информация : Audio Coding 3
Расширение режима : CM (complete main)
Параметр Endianness формата : Big
Идентификатор кодека : A_AC3
Продолжительность : 1 ч. 28 м.
Вид битрейта : Постоянный
Битрейт : 640 Кбит/сек
Каналы : 6 каналов
Расположение каналов : Front: L C R, Side: L R, LFE
Частота : 48,0 КГц
Битовая глубина : 16 бит
Метод сжатия : С потерями
Размер потока : 403 Мбайт (8%)
Заголовок : Original
Язык : English
Default : Нет
Forced : Нет

Текст #1
Идентификатор : 4
Формат : UTF-8
Идентификатор кодека : S_TEXT/UTF8
Идентификатор кодека/Информация : UTF-8 Plain Text
Заголовок : Forced
Язык : Russian
Default : Да
Forced : Нет

Текст #2
Идентификатор : 5
Формат : UTF-8
Идентификатор кодека : S_TEXT/UTF8
Идентификатор кодека/Информация : UTF-8 Plain Text
Заголовок : Full
Язык : Russian
Default : Нет
Forced : Нет

Текст #3
Идентификатор : 6
Формат : UTF-8
Идентификатор кодека : S_TEXT/UTF8
Идентификатор кодека/Информация : UTF-8 Plain Text
Заголовок : Full
Язык : English
Default : Нет
Forced : Нет

Меню
00:00:00.000 : en:00:00:00.000
00:07:01.129 : en:00:07:01.129
00:13:20.716 : en:00:13:20.716
00:19:05.936 : en:00:19:05.936
00:24:23.170 : en:00:24:23.170
00:30:41.256 : en:00:30:41.256
00:34:59.388 : en:00:34:59.388
00:41:55.596 : en:00:41:55.596
00:48:13.974 : en:00:48:13.974
00:52:32.858 : en:00:52:32.858
00:57:32.824 : en:00:57:32.824
01:02:34.125 : en:01:02:34.125
01:06:20.434 : en:01:06:20.434
01:10:30.059 : en:01:10:30.059
01:13:54.847 : en:01:13:54.847
01:16:02.474 : en:01:16:02.474
Люди в черном 3 / Men in Black 3
Год выпуска: 2012
Страна: США
Жанр: фантастика, боевик, комедия, приключения
Продолжительность: 01:45:50
Перевод: Профессиональный [Дубляж]
Субтитры: Rus (полные), Eng (полные)

Режиссер: Барри Зонненфельд / Barry Sonnenfeld
В ролях: Уилл Смит (Agent J), Джош Бролин (Young Agent K), Томми Ли Джонс (Agent K), Джемейн Клемент (Boris The Animal), Майкл Стулбарг (Griffin), Эмма Томпсон (Agent O), Элис Ив (Young Agent O), Майк Колтер (Colonel), Билл Хейдер (Andy Warhol), Майкл Чернус (Jeffrey Price), Николь Шерзингер (Boris' Girlfriend), Дэвид Раш (Agent X)

Описание: Агент Джей узнает, что никакого защитного галактического щита, способного отразить иноземный удар, не существует. Агент Кей не построил его, потому что был убит в 1969 году. Агент Джей должен совершить путешествие во времени, чтобы спасти Землю и жизнь напарника.

kinopoisk.ru: 7.421 (85 624)
imdb.com: 6.90 (196 771)
MPAA: PG-13 - Детям до 13 лет просмотр не желателен

Качество: BDRip 720p
Формат: MKV
Видео кодек: AVC
Аудио кодек: AC3
Видео: AVC, 1280x696 (16:9), 8199 kbps, 59,940 fps, 0,154 bpp
Аудио русский: AC3 / 5.1 / 48 kHz / 640 kbps / 16 bit ||
Аудио английский: AC3 / 5.1 / 48 kHz / 640 kbps / 16 bit
Аудио : AC3 5.1, 640 kb/s, А.Гаврилов (отдельно)


В квартире Кея за стеной спрятана тайная комната с оружием, которая была и во втором фильме.
Место проведения вечеринки в 1969 году с Энди Уорхолом очевидно является изображением его «Серебряного завода», названного так потому, что его стены были покрыты алюминиевой фольгой. «Серебряный завод» был закрыт в 1968 году.
Надпись «CRM-114» два раза появляется в фильме: на внешней стене тюрьмы на Луне (видна, когда Борис сбегает) и идентификационный номер бункера на пляже у мыса Канаверал. Эти цифры дань режиссеру Стэнли Кубрику, который использовал их в своем фильме «Доктор Стрейнджлав, или Как я научился не волноваться и полюбил атомную бомбу» (1963).
Система тросового спуска, показанная в фильме рядом со стартовой площадкой «Аполлона», действительно существует. Она была установлена для «Аполлона» и впоследствии расширена для программы «Космический челнок». Во время чрезвычайных ситуаций экипаж должен был спускаться в стальных кабинах по тросовым линиям вниз к взрывозащищённым бункерам. Для астронавтов освоение системы являлось частью тренировок, но она никогда не использовалась в реальной экстренной ситуации.
В самом начале фильма лунный модуль «Аполлона» демонстрируется с подъемным модулем. Этот модуль был запущен с Луны, чтобы вернуть астронавтов на орбитальный модуль для возвращения на Землю.
Один из солдат на пляже на мысе Канаверал имеет Железный крест среди прочих наград.
В фильме герои появляются на башне обслуживания, на стартовой площадке «Аполлона-11». Поскольку это событие широко освещалось на телевидении, думается, что миллионы людей могли видеть их.
Леди Гага появляется на голографическом мониторе, в то время как агент Джей ищет агента Кея в штаб-квартире «людей в чёрном».
Режиссер Барри Зонненфельд снялся в роли одного из людей наблюдающих запуск «Аполлона-11» на диване с чашечкой кофе.
Майкл Бэй проявлял явный интерес к режиссуре фильма.
Сценарист Дэвид Кепп, который изначально работал над «Люди в черном 2», но покинул проект ради сценария к фильму «Человек-паук», был принят в команду сценаристов к «Люди в черном 3».
Саша Барон Коэн рассматривался на роль Бориса.
По слухам, Бетти Уайт претендовала на роль в фильме.
Это первый фильм Уилла Смита за 3,5 года, с момента выхода «Семь жизней» в декабре 2008-го. Столь длительного перерыва не было за всю его карьеру в кино, начавшуюся в 1993 году.
Джемма Артертон должна была сыграть роль молодого агента «О», но из-за несогласованности рабочего графика ей пришлось отказаться от роли.
Джош Бролин играет молодого Томми Ли Джонса (агент Кей). Жена Бролина, Дайана Лэйн снималась с Джонсом в мини-сериале «Одинокий голубь». В сиквеле «Улицы Ларедо» роль Лэйн получила Сисси Спейсек, которая сыграла жену Томми Ли Джонса в фильме «Дочь шахтера», а в действительности является кузиной Рипа Торна.
Предыдущая картина «Люди в черном 2» вышла в тот же год что и «Человек-паук». Новый фильм, выходит 10 лет спустя, и в этом же году на экранах появится «Новый Человек-паук».
Это второй триквел продюсера Стивена Спилберга, который включает «Аполлон-11» в своей сюжетной линии. Первым был «Трансформеры 3: Тёмная сторона Луны», в котором обращается внимание на то, что Аполлон обнаружил корабль Трансформеров.
В соответствии с трейлером агент Джей путешествует из 2012 года в 1969, на 43 года назад, в прошлое. Он просыпается и видит молодого агента Кей, которого играет Джош Бролин. Бролин всего на 21 год и 5 месяцев моложе, чем Томми Ли Джонс, который играет взрослого агента Кей.
Юрий Ловенталь, который озвучивает пришельца-граффити, так же озвучивал Бена Теннисона в мультсериале «Бен 10», семья Теннисона связана с организацией очень похожей на «Люди в черном».
Специалист по визуальным эффектам, гримёр Рик Бэйкер снялся в эпизодической роли пришельца с налысо побритой головой.
Личный визажист Уилла Смита Джуди Мёрдок появляется в фильме в роли пришельца с синей кожей.
Чтобы войти в образ Лили Пойзон, Николь Шерзингер слушала Led Zeppelin.
Агент Джей приходит в контору думая, что его напарник Кей разыгрывает его и кричит на все помещение пытаясь отыскать Кея. На мониторах, на котором изображены пришельцы (скрывающиеся под видом людей), за которыми тщательно следят Люди в черном, на заднем плане агента Джея, можно разглядеть режиссера Тима Бёртона.
Говорящая рыба-инопланетянин, которая лежала на разделочной доске в китайском ресторане на самом деле земная рыба Psychrolutes marcidus — глубоководная донная морская рыба семейства психролютовые, которую из-за её непривлекательного внешнего вида часто называют одной из самых причудливых океанских глубоководных рыб на планет, обитающая на глубинах 600-1200 м у побережья Австралии и Тасмании.
В комнате Джея в момент его диалога с Кеем по телефону на стене висит портрет пса Фрэнка, известного по двум предыдущим фильмам, и во втором пёс был временным напарником Джея, в момент отсутствия Кея. Также изображение пса (с подписью «невероятный говорящий пёс») можно увидеть на плакате в моменте, когда в 1969 году полицейские останавливают Джея для досмотра.
В штаб-квартире «людей в чёрном» на голографических экранах можно увидеть Билла Гейтса, Дэвида Бекхэма, Минг Йао и Леди Гагу.

Ответственность за мыс Кеннеди лежала на ВВС США, но все военнослужащие, с которыми сталкиваются герои, носят форму сухопутных войск США.
Часов с обратным отсчетом, отображенных при запуске «Аполлон-11», в 1969 году не существовало.
В фильме космодром «Аполлона-11» именуют как мыс Канаверал. И это было бы естественно для агента Джей, но не для молодого агента Кей, так как мыс был переименован в мыс Кеннеди после убийства президента Кеннеди в 1963 году. Название сменилось на мыс Канаверал только в 1973 году, уже после запуска «Аполлон-11».
Полоска терки на спичечном коробке находится с тыльной его части. В 1969 году такие полоски находились спереди. Они были перемещены для безопасности по закону от 1973 года.
Папуа — Новая Гвинея получила независимость в 1975 году. Государственный флаг был принят 1 июля 1971 года. Соответственно в 1969 году этого флага еще не было, однако он явно виден в нескольких кадрах во время речи перед запуском «Аполлон-11».
Когда молодые Джей и Кей идут есть пирог, официантка ставит тарелку пирога перед Кейем. В следующем кадре, когда он разговаривает с агентом Джей, у него уже набит полный рот.
Развевающийся на ветру испанский флаг, во время сцены запуска на мысе Канаверал, является действующим флагом страны. При режиме Франко в 1969 году Испания имела другой флаг (гербовый щит с черным орлом).
Машины на Кони-Айленд, которые можно видеть позади агентов Джея и Кей, имеют прямоугольные фары, которых не было в 1969 году.
Лунный модуль, который можно видеть рядом с тюрьмой в начале фильма, предположительно «Орел Аполлона 11». В этом случае флаг не должен стоять (астронавты сообщили, что заметили его перемещение, когда покидали Луну, если конечно кто-то не переставил его).
В фильме тюрьма на Луне расположена в верхнем квадранте лунной поверхности, с приземлившимся с ней рядом «Аполлоном». Посадка «Аполлона» не производилась так далеко, в большинстве своем только в экваториальной зоне.
15 июля 1969 года — в ночь перед запуском Apollo 11 — Луна не была полной, как показано в фильме, а с точностью наоборот: это был полумесяц, за день до новолуния.
Ближе к концу фильма Борис-Животное стреляет шипами в агента Джея, он стреляет три раза и все три раза попадает. Вскоре после этого, Джей совершает прыжок во времени и успешно избегает шипов Бориса, однако, на этот раз Борис стреляет четыре раза вместо трех.
Пока Джей, Кей и Гриффин входят в штаб-квартиру Людей в Черном, чтобы полететь на мыс Канаверал, над входной дверью можно увидеть три медальона. Они были разработаны Полом Мэншипом, и их не было там в 1969 году. Они были установлены на доме съездов New York Coliseum, в центре Манхэттена. Эти барельефы были удалены в 1999 году, когда его начали готовить к сносу и уже позже установили на здании вентиляции.
Когда Борис взрывает стену в тюрьме, всех охранников высасывает наружу. Когда он выходит, ни одного тела не видно. У Луны есть гравитация, тела не унесло бы в космос, они должны были упасть на поверхность.
Когда Джей и Кей, покинув штаб-квартиру, едут в Cosmic Lanes, они проезжают одну и ту же улицу дважды. Это видно по фургону с горизонтальной панелью.
Молодому агенту Кей поручено поместить кулон на ракете, чтобы та доставила его в космос, и тем самым защитить Землю. Эта ракета никогда не летала в космос. Лишь однажды Сатурн-5 был достаточно высоко, чтобы выброшенная отделяемая кабина могла безопасно парашютировать в случае экстренной ситуации.
В оригинале полковник сухопутных войск произносит «the brig» (помещение для арестованных на военном корабле). У военно-морского флота это называется «the brig», у сухопутных войск аналогичное помещение называется «the stockade».

General
Unique ID : 190616780312594462680721829387668357810 (0x8F6774DDE221CB33947D2992A8C902B2)
Complete name : C:\закачки\Люди в черном 720p 60fps\Люди в черном 3\Люди в черном 3 720p 60fps.mkv
Format : Matroska
Format version : Version 4 / Version 2
File size : 7.15 GiB
Duration : 1h 45mn
Overall bit rate : 9 672 Kbps
Encoded date : UTC 2014-06-14 16:26:59
Writing application : mkvmerge v7.0.0 ('Where We Going') 64bit built on Jun 9 2014 15:16:27
Writing library : libebml v1.3.0 + libmatroska v1.4.1
DURATION : 01:45:50.400000000
NUMBER_OF_FRAMES : 198450
NUMBER_OF_BYTES : 508032000
_STATISTICS_WRITING_APP : mkvmerge v7.0.0 ('Where We Going') 64bit built on Jun 9 2014 15:16:27
_STATISTICS_WRITING_DATE_UTC : 2014-06-14 16:26:59
_STATISTICS_TAGS : BPS DURATION NUMBER_OF_FRAMES NUMBER_OF_BYTES

Video
ID : 1
Format : AVC
Format/Info : Advanced Video Codec
Format profile : High@L4.1
Format settings, CABAC : Yes
Format settings, ReFrames : 9 frames
Codec ID : V_MPEG4/ISO/AVC
Duration : 1h 45mn
Bit rate : 8 199 Kbps
Width : 1 280 pixels
Height : 696 pixels
Display aspect ratio : 16:9
Frame rate : 59.940 fps
Color space : YUV
Chroma subsampling : 4:2:0
Bit depth : 8 bits
Scan type : Progressive
Bits/(Pixel*Frame) : 0.154
Stream size : 6.06 GiB (85%)
Writing library : x264 core 130 r2273 b3065e6
Encoding settings : cabac=1 / ref=9 / deblock=1:-2:-2 / analyse=0x3:0 / me=umh / subme=9 / psy=1 / psy_rd=1.00:0.10 / mixed_ref=1 / me_range=24 / chroma_me=0 / trellis=1 / 8x8dct=1 / cqm=0 / deadzone=21,11 / fast_pskip=0 / chroma_qp_offset=-3 / threads=12 / lookahead_threads=1 / sliced_threads=0 / nr=0 / decimate=0 / interlaced=0 / bluray_compat=0 / constrained_intra=0 / bframes=6 / b_pyramid=2 / b_adapt=2 / b_bias=0 / direct=1 / weightb=1 / open_gop=0 / weightp=2 / keyint=599 / keyint_min=59 / scenecut=40 / intra_refresh=0 / rc=crf / mbtree=0 / crf=16.0 / qcomp=0.60 / qpmin=0 / qpmax=69 / qpstep=4 / ip_ratio=1.40 / pb_ratio=1.30 / aq=1:0.90
Language : English
Default : Yes
Forced : No
DURATION : 01:45:50.367000000
NUMBER_OF_FRAMES : 380641
NUMBER_OF_BYTES : 6657804937
_STATISTICS_WRITING_APP : mkvmerge v7.0.0 ('Where We Going') 64bit built on Jun 9 2014 15:16:27
_STATISTICS_WRITING_DATE_UTC : 2014-06-14 16:26:59
_STATISTICS_TAGS : BPS DURATION NUMBER_OF_FRAMES NUMBER_OF_BYTES

Audio #1
ID : 2
Format : AC-3
Format/Info : Audio Coding 3
Mode extension : CM (complete main)
Codec ID : A_AC3
Duration : 1h 45mn
Bit rate mode : Constant
Bit rate : 640 Kbps
Channel(s) : 6 channels
Channel positions : Front: L C R, Side: L R, LFE
Sampling rate : 48.0 KHz
Bit depth : 16 bits
Compression mode : Lossy
Stream size : 484 MiB (7%)
Title : Dub
Language : Russian
Default : Yes
Forced : No

Audio #2
ID : 5
Format : AC-3
Format/Info : Audio Coding 3
Mode extension : CM (complete main)
Codec ID : A_AC3
Duration : 1h 45mn
Bit rate mode : Constant
Bit rate : 640 Kbps
Channel(s) : 6 channels
Channel positions : Front: L C R, Side: L R, LFE
Sampling rate : 48.0 KHz
Bit depth : 16 bits
Compression mode : Lossy
Stream size : 484 MiB (7%)
Title : Original
Language : English
Default : No
Forced : No

Text #1
ID : 3
Format : UTF-8
Codec ID : S_TEXT/UTF8
Codec ID/Info : UTF-8 Plain Text
Title : Full
Language : Russian
Default : No
Forced : No

Text #2
ID : 4
Format : UTF-8
Codec ID : S_TEXT/UTF8
Codec ID/Info : UTF-8 Plain Text
Title : Full
Language : English
Default : No
Forced : No

Menu
00:00:00.000 : :Chapter 01
00:06:09.577 : :Chapter 02
00:11:27.478 : :Chapter 03
00:16:58.809 : :Chapter 04
00:22:36.229 : :Chapter 05
00:31:24.632 : :Chapter 06
00:37:36.420 : :Chapter 07
00:42:43.018 : :Chapter 08
00:48:55.849 : :Chapter 09
00:53:58.235 : :Chapter 10
00:59:27.772 : :Chapter 11
01:05:52.782 : :Chapter 12
01:11:56.312 : :Chapter 13
01:19:50.619 : :Chapter 14
01:27:57.063 : :Chapter 15
01:35:30.683 : :Chapter 16
pb.wtf



Скачать Люди в черном через торрент http://i1.imageban.ru/out/2014/06/19/90496a90cf4c3de541ccb2b476fb4301.jpg Скачать, смотреть онлайн Люди в черном бесплантно в хорошем качестве Описание: Они - самый большой секрет Земли. Они работают на неофициальное правительственное агентство, регулирующее деятельность ... 9.7 10 13
Info! Золотая раздача, скачанное не засчитывается.
Торрент: Зарегистрирован [2014-06-28 16:28] · скачан: 321 раз
Статус: √ проверено
Размер: 23.94 GB
Как cкачать? Как скачать Люди в черном через торрент | UTorrent

28-11-2019 20:33  

Отключить всю рекламу на сайте

28-06-2014 16:47 Люди в черном Скачать торрент  

29-06-2014 19:19 Люди в черном Скачать торрент  

а 1080р такого не будет? Смысл от 60fps на 720?pb.wtf



30-06-2014 16:17 Люди в черном Скачать торрент  

explouder писал(а):

а 1080р такого не будет? Смысл от 60fps на 720?

если только под заказpb.wtf



09-02-2018 06:49 Люди в черном Скачать торрент  

Авторская группа в ВК
Подпишите пожалуйста.pb.wtf



    Дорогой пользователь! Огромная просьба, поблагодарите релизера, оцените раздачу и оставьте свои комментарий, если Вы скачали Люди в черном через торрент бесплатно!
    Комментировать посты могут только пользователи прошедшие не сложную регистрацию
    Показать сообщения:    

    Люди в черном через торрент
    Скачать бесплатно Люди в черном
    Люди в черном скачать торрент
    Люди в черном смотреть онлайн
    Cкачать фильм Люди в черном бесплатно
    Люди в черном скачать торрент в хорошем качестве
    Люди в черном смотреть онлайн бесплатно в хорошем качестве


    Вы не можете начинать темы
    Вы не можете отвечать на сообщения
    Вы не можете редактировать свои сообщения
    Вы не можете удалять свои сообщения
    Вы не можете голосовать в опросах
    Вы не можете прикреплять файлы к сообщениям
    Вы можете скачивать файлы