Всегда рабочее зеркало без VPN и Proxy просто перед .vidak.icu напиши любое слово или цифру, Пример http://5n3n.vidak.icu

MVO

2 сезон

1 сезон

1

1 сезон

iTunes

2 сезон

13

1 сезон

Deluxe

pack

Рекомендуем

Пиратка

30

ВАЖНО

RePack

MK11

RePack

jed

RePack

fifa19

RePack

RDR2

RePack

NEED FOR SPEED™ PAYBACK

Кинопоиск HD

6 сезон

 Острые козырьки 6 сезон

Все сериалы

все сериалы на PB.wtf

RePack

FAR CRY 5

Anonymous, нам критически не хватает 5601 руб. на оплату серверов и переферии за Апрель, помоги нам пожалуйста, вся надежда только на тебя. В благодарность мы отключим тебе всю рекламу на сайте!

×
  
Magnet ссылка

Рейд 2 / The Raid 2: Berandal (Гарет Эванс / Gareth Evans) [2014 г., Криминал, триллер, боевик, BDRip-AVC] AVO [Д.Есарев] pb.wtf

Рейд 2 через торрент pb.wtf

Размер: 1.46 GB | Добавлен: 7 лет 10 мес. назад | Торрент скачан:1936 раз
Смотреть онлайн Рейд 2 | Скачать    Ребята, помогите собрать деньги на оплату серверов!!!

28-06-2014 18:49 Рейд 2 Скачать торрент  

Рейд 2 / The Raid 2: Berandal
Год выпуска: 2014
Страна: Индонезия, США / Pt. Merantau Films, XYZ Films
Жанр: Криминал, триллер, боевик
Продолжительность: 02:30:28
Перевод: Авторский [Д.Есарев]
Субтитры: Русские (х2), английские (Full + SDH + Comments)
Навигация по главам: Есть

Режиссер: Гарет Эванс / Gareth Evans



В ролях: Тио Пакусодево, Ока Антара, Дони Аламсях, Джули Эстелль, Яян Рухьян, Рюхэй Мацуда, Алекс Аббад, Арифин Путра, Сесеп Ариф Рахман, Ико Ювайс

Описание: Из трех полицейских, выбравшихся из кровавого ада первой части, в живых остается только офицер Рама. Уволившись из спецназа, он пробует начать жизнь заново, но вскоре прошлое жестко напоминает о себе - преступники убивают его брата. Чтобы отомстить, он внедряется в мощный криминальный синдикат, где быстро поднимается до самых вершин бандитской иерархии. Врагов здесь еще больше, и каждый неверный шаг может оказаться последним. Здесь нет ни близких, ни друзей, ни любви, ни тоски, ни жалости!

Качество: BDRip-AVC
Формат: MKV
Видео кодек: H.264
Аудио кодек: AC3
Видео: 948x394 (2,40:1), 23,976 fps, 1200 Кbps, 0.134 bit/pixel
Аудио: 48 kHz, AC3 Dolby Digital, 2/0 (L,R,) + LFE ch, 192.00 kbps

Автор рипа:

Общее
Уникальный идентификатор : 227183077063147258892764074968261019632 (0xAAE9DE7D2AB7D754A6592FC411A747F0)
Полное имя : Reyd.2.2014.RUS.BDRip.x264.-HELLYWOOD.mkv
Формат : Matroska
Версия формата : Version 4 / Version 2
Размер файла : 1,46 Гбайт
Продолжительность : 2 ч. 30 м.
Общий поток : 1393 Кбит/сек
Название фильма : HELLYWOOD - rip by potroks
Дата кодирования : UTC 2014-06-28 18:07:48
Программа кодирования : mkvmerge v5.9.0 ('On The Loose') built on Dec 15 2012 16:39:58
Библиотека кодирования : libebml v1.3.0 + libmatroska v1.4.0

Видео
Идентификатор : 1
Формат : AVC
Формат/Информация : Advanced Video Codec
Профиль формата : High@L4.1
Параметр CABAC формата : Да
Параметр ReFrames формата : 12 кадров
Идентификатор кодека : V_MPEG4/ISO/AVC
Продолжительность : 2 ч. 30 м.
Битрейт : 1200 Кбит/сек
Ширина : 948 пикселей
Высота : 394 пикселя
Соотношение сторон : 2,40:1
Режим частоты кадров : Постоянный
Частота кадров : 23,976 кадра/сек
Цветовое пространство : YUV
Субдискретизация насыщенности : 4:2:0
Битовая глубина : 8 бит
Тип развёртки : Прогрессивная
Бит/(Пиксели*Кадры) : 0.134
Размер потока : 1,23 Гбайт (84%)
Заголовок : The Raid 2: Berandal
Библиотека кодирования : x264 core 130 r2273 b3065e6
Настройки программы : cabac=1 / ref=12 / deblock=1:-3:-3 / analyse=0x3:0x133 / me=umh / subme=11 / psy=1 / psy_rd=1.03:0.00 / mixed_ref=1 / me_range=48 / chroma_me=1 / trellis=2 / 8x8dct=1 / cqm=0 / deadzone=21,11 / fast_pskip=0 / chroma_qp_offset=-2 / threads=9 / lookahead_threads=6 / sliced_threads=0 / nr=0 / decimate=0 / interlaced=0 / bluray_compat=0 / constrained_intra=0 / bframes=13 / b_pyramid=2 / b_adapt=2 / b_bias=0 / direct=3 / weightb=1 / open_gop=0 / weightp=2 / keyint=250 / keyint_min=23 / scenecut=40 / intra_refresh=0 / rc_lookahead=130 / rc=2pass / mbtree=1 / bitrate=1200 / ratetol=1.0 / qcomp=0.70 / qpmin=0 / qpmax=69 / qpstep=4 / cplxblur=20.0 / qblur=0.5 / vbv_maxrate=50000 / vbv_bufsize=62500 / nal_hrd=none / ip_ratio=1.35 / aq=2:0.80
Язык : English
Default : Да
Forced : Нет

Аудио
Идентификатор : 2
Формат : AC-3
Формат/Информация : Audio Coding 3
Расширение режима : CM (complete main)
Параметр Endianness формата : Big
Идентификатор кодека : A_AC3
Продолжительность : 2 ч. 30 м.
Вид битрейта : Постоянный
Битрейт : 192 Кбит/сек
Каналы : 2 канала
Расположение каналов : Front: L R
Частота : 48,0 КГц
Битовая глубина : 16 бит
Метод сжатия : С потерями
Размер потока : 207 Мбайт (14%)
Заголовок : AVO | DD 2.0 @ 192 kbps - Д.Есарев
Язык : Russian
Default : Да
Forced : Нет

Текст #1
Идентификатор : 3
Формат : UTF-8
Идентификатор кодека : S_TEXT/UTF8
Идентификатор кодека/Информация : UTF-8 Plain Text
Заголовок : Дэн 107miller
Язык : Russian
Default : Нет
Forced : Нет

Текст #2
Идентификатор : 4
Формат : UTF-8
Идентификатор кодека : S_TEXT/UTF8
Идентификатор кодека/Информация : UTF-8 Plain Text
Заголовок : Хихикающий доктор
Язык : Russian
Default : Нет
Forced : Нет

Текст #3
Идентификатор : 5
Формат : UTF-8
Идентификатор кодека : S_TEXT/UTF8
Идентификатор кодека/Информация : UTF-8 Plain Text
Заголовок : Full
Язык : English
Default : Нет
Forced : Нет

Текст #4
Идентификатор : 6
Формат : UTF-8
Идентификатор кодека : S_TEXT/UTF8
Идентификатор кодека/Информация : UTF-8 Plain Text
Заголовок : SDH
Язык : English
Default : Нет
Forced : Нет

Текст #5
Идентификатор : 7
Формат : UTF-8
Идентификатор кодека : S_TEXT/UTF8
Идентификатор кодека/Информация : UTF-8 Plain Text
Заголовок : Comments
Язык : English
Default : Нет
Forced : Нет

Меню
00:00:00.000 : en:(01)00:00:00:000
00:08:02.315 : en:(02)00:08:02:315
00:14:03.217 : en:(03)00:14:03:217
00:21:08.892 : en:(04)00:21:08:892
00:31:45.486 : en:(05)00:31:45:486
00:42:22.122 : en:(06)00:42:22:122
00:50:55.177 : en:(07)00:50:55:177
01:01:58.423 : en:(08)01:01:58:423
01:11:49.763 : en:(09)01:11:49:763
01:24:47.165 : en:(10)01:24:47:165
01:36:31.994 : en:(11)01:36:31:994
01:44:18.752 : en:(12)01:44:18:752
01:48:31.713 : en:(13)01:48:31:713
01:57:20.283 : en:(14)01:57:20:283
02:05:59.093 : en:(15)02:05:59:093
02:20:02.894 : en:(16)02:20:02:894

pb.wtf



Скачать Рейд 2 через торрент https://pic.kartinco.top/new/img/2014-06/28/etrtpeswnqz1v3rftxwb9x0ox.png Скачать, смотреть онлайн Рейд 2 бесплантно в хорошем качестве Описание: Из трех полицейских, выбравшихся из кровавого ада первой части, в живых остается только офицер Рама. Уволившись из спецназа, он ... 9.8 10 51
Info! Золотая раздача, скачанное не засчитывается.
Торрент: Зарегистрирован [2014-06-28 18:49] · скачан: 1 936 раз
Статус: √ проверено
Размер: 1.46 GB
Как cкачать? Как скачать Рейд 2 через торрент | UTorrent

% Раздел Тема Автор DL S | L
Фильмы (HD 720p, 1080p) (48-60 fps) [ 16.3 GB ] Рейд 2 / The Raid 2: Berandal [2014 Индонезия BDRip 1080p - [] 60FPS Tiberiumsun69 Скачать
1 | 0
Фильмы 2014 [DVDrip, WEB-DLRip, HDrip] [ 2.19 GB ] Рейд 2 / The Raid 2: Berandal [2014 BDRip ] coc900 Скачать
1 | 0
Фильмы 2014 [DVDrip, WEB-DLRip, HDrip] [ 2.92 GB ] Рейд 2 / The Raid 2: Berandal [2014 BDRip-AVC] [USA Transfer] DUB potroks Скачать
2 | 0
Фильмы 2014 [DVDrip, WEB-DLRip, HDrip] [ 2.11 GB ] Рейд 2 / The Raid 2: Berandal [2014 HDRip-AVC От R.G. PiratFilms White Smoke Скачать
1 | 0
Фильмы (HD 720p, 1080p) (48-60 fps) [ 9.26 GB ] Рейд 2 / The Raid 2: Berandal [2014 Индонезия BDRip 720p / 60 FPS - [] Tiberiumsun69 Скачать
1 | 0
Фильмы (DVD фильмы) [ 7.43 GB ] Рейд 2 / The Raid 2: Berandal [2014 DVD9] R5 voovaz Скачать
1 | 0
Фильмы [HD 720p, 1080p] (Хороший звук DUB, MVO) [ 10.2 GB ] Рейд 2 / The Raid 2: Berandal [2014 Индонезия BDRip 1080p - [] RUS Transfer _denis_100 Скачать
1 | 0

28-11-2019 20:33  

Отключить всю рекламу на сайте

29-06-2014 00:50 Рейд 2 Скачать торрент  

ништяк, спасибо бро ждал.pb.wtf



29-06-2014 10:54 Рейд 2 Скачать торрент  

фильм -ураган!!!pb.wtf



30-06-2014 03:26 Рейд 2 Скачать торрент  

посмотрел... фильм чума , всем рекомундую. по мне так лучше чем первая. :jest3: pb.wtf



30-06-2014 19:55 Рейд 2 Скачать торрент  

убить билла отдыхает. фильм огонь!!!!!!!!!!pb.wtf



03-07-2014 11:32 Рейд 2 Скачать торрент  

Чуть не в тему, извиняюсь:
XYZ Films - обычно этими тремя буквами заменяют матерное слово ))pb.wtf



03-07-2014 16:29 Рейд 2 Скачать торрент  

посмотрим, спасибоpb.wtf



29-11-2014 13:24 Рейд 2 Скачать торрент  

насколько я не любитель боевиков - но фильм впечатлилpb.wtf



    Дорогой пользователь! Огромная просьба, поблагодарите релизера, оцените раздачу и оставьте свои комментарий, если Вы скачали Рейд 2 через торрент бесплатно!
    Комментировать посты могут только пользователи прошедшие не сложную регистрацию
    Показать сообщения:    

    Рейд 2 через торрент
    Скачать бесплатно Рейд 2
    Рейд 2 скачать торрент
    Рейд 2 смотреть онлайн
    Cкачать фильм Рейд 2 бесплатно
    Рейд 2 скачать торрент в хорошем качестве
    Рейд 2 смотреть онлайн бесплатно в хорошем качестве


    Вы не можете начинать темы
    Вы не можете отвечать на сообщения
    Вы не можете редактировать свои сообщения
    Вы не можете удалять свои сообщения
    Вы не можете голосовать в опросах
    Вы не можете прикреплять файлы к сообщениям
    Вы можете скачивать файлы