новый адрес
Мега распродажа FORZA HORIZON 4 ULTIMATE+ВСЕ DLC+ОНЛАЙН всего за 499р. 349 руб. (супер цена). Внимание количество ограничено!!!

iTunes

1+1

iTunes

мы

iTunes

1

iTunes

Чернобыль

iTunes

Ральф против интернета

Лицензия

ПШазам

Лицензия

Игра престолов

Лицензия

30
pack

ВАЖНО

!!Акция!!

Alien_RageХит недели

RePack

Resident Evil 21

ИГРА 18+

pack

RePack

Metro:Exodus

!!Акция!!

Alien_Rage

RePack

fifa19

RePack

Assassins Creed: Odyssey

RePack

NEED FOR SPEED™ PAYBACK

3 сезон

9 сезон

Бесстыжие 9 сезон

Все сериалы

все сериалы на PB.wtf

RePack

FAR CRY 5
Ребята, катастрофически не хватает 1900р. для оплаты серверов за Октябрь (всвязи с блокировками трафик упал в 3 раза), 1-2р., выручайте.
  

Кости / Bones / Сезон: 9 / Серии 1-24 из 24 [ 2014 , США , драма, мелодрама, комедия , WEBDLRip-AVC ] MVO (BaibaKo) pb.wtf

Кости через торрент pb.wtf

Размер: 13.99 GB | Добавлен: 5 лет 4 мес. назад | Торрент скачан:227 раз
Скачать  

29-06-2014 03:06 Кости Скачать торрент  

Кости / Bones«To Unravel A Murder, You Have To Strip It To The Bone»
Год выпуска: 2014
Страна: США
Жанр: драма, мелодрама, комедия, криминал, детектив
Продолжительность: ~00:43:01 (Серия)
Перевод: Профессиональный (многоголосый, закадровый)(BaibaKo)
Субтитры: Нет

В ролях:
Эмили Дешанель (Dr. Temperance «Bones» Brennan), Дэвид Бореаназ (Special Agent Seeley Booth), Микаэла Конлин (Angela Montenegro), Ти-Джей Тайн (Dr. Jack Hodgins), Тамара Тейлор (Dr. Camille Saroyan), Джон Фрэнсис Дейли (Dr. Lance Sweets), Эрик Миллеган (Zack Addy), Патриция Белчер (Caroline Julian), Майкл Терри (Wendell Bray), Юджин Бирд (Dr. Clark Edison), Джонатан Адамс (Dr. Daniel Goodman), Карла Галло (Daisy Wick)
Описание:
Доктор Темперанс Бреннан - блестящий, но одинокий антрополог, получает то, чего она меньше всего желала - напарника. Бюро посылает ей амбициозного агента ФБР Сили Бута, чтобы помочь в расследовании нераскрытых дел, путем изучения и идентификации костей давно пропавших людей.
Но давно умершие жертвы не единственное, с чем придется столкнуться Боунс, Буту и их команде, раскрывая преступления, они часто сталкиваются с взяточничеством, коррупцией и местной разрозненностью.
Рейтинг
kinopoisk.ru: 8.000 (16 796)
imdb.com: 8.10 (81 102)
Качество: WEBDLRip-AVC
Формат: MPEG-4
Видео кодек: AVC
Аудио кодек: AAC (LC)
Видео: 1536 Кбит/сек, 720*400 (16:9), в 23,976 кадра/сек, AVC
Аудио №1: Русский 192 Кбит/сек, 48,0 КГц, 2 канала, AAC (LC)
Аудио №2: Английский 192 Кбит/сек, 48,0 КГц, 2 канала, AAC (LC)
Общее
Полное имя : H:\ТОРРЕНТЫ\Кости(Сезон 9)2014\Bones.s09e24.WEB-DLRip.x264.Rus.Eng.BaibaKo.tv.mp4
Формат : MPEG-4
Профиль формата : Base Media
Идентификатор кодека : isom
Размер файла : 591 Мбайт
Продолжительность : 43 м.
Режим общего битрейта : Переменный
Общий поток : 1920 Кбит/сек
Дата кодирования : UTC 2014-06-28 15:54:38
Дата пометки : UTC 2014-06-28 15:54:38

Видео
Идентификатор : 1
Формат : AVC
Формат/Информация : Advanced Video Codec
Профиль формата : Baseline@L3.0
Параметр CABAC формата : Нет
Параметр ReFrames формата : 3 кадра
Идентификатор кодека : avc1
Идентификатор кодека/Информация : Advanced Video Coding
Продолжительность : 43 м.
Битрейт : 1536 Кбит/сек
Максимальный битрейт : 7944 Кбит/сек
Ширина : 720 пикселей
Высота : 400 пикселей
Соотношение сторон : 16:9
Режим частоты кадров : Переменный
Частота кадров : 23,976 кадра/сек
Минимальная частота кадров : 23,974 кадра/сек
Максимальная частота кадров : 23,981 кадра/сек
Цветовое пространство : YUV
Субдискретизация насыщенности : 4:2:0
Битовая глубина : 8 бит
Тип развёртки : Прогрессивная
Бит/(Пиксели*Кадры) : 0.222
Размер потока : 473 Мбайт (80%)
Библиотека кодирования : x264 core 130 r2273 b3065e6
Настройки программы : cabac=0 / ref=3 / deblock=1:0:0 / analyse=0x1:0x111 / me=hex / subme=7 / psy=1 / psy_rd=1.00:0.00 / mixed_ref=1 / me_range=16 / chroma_me=1 / trellis=1 / 8x8dct=0 / cqm=0 / deadzone=21,11 / fast_pskip=1 / chroma_qp_offset=-2 / threads=12 / lookahead_threads=2 / sliced_threads=0 / nr=0 / decimate=1 / interlaced=0 / bluray_compat=0 / constrained_intra=0 / bframes=0 / weightp=0 / keyint=240 / keyint_min=24 / scenecut=40 / intra_refresh=0 / rc_lookahead=40 / rc=2pass / mbtree=1 / bitrate=1536 / ratetol=1.0 / qcomp=0.60 / qpmin=0 / qpmax=69 / qpstep=4 / cplxblur=20.0 / qblur=0.5 / ip_ratio=1.40 / aq=1:1.00
Дата кодирования : UTC 2014-06-01 21:45:12
Дата пометки : UTC 2014-06-28 15:55:00
Основные цвета : BT.709
Характеристики трансфера : BT.709
Коэффициенты матрицы : BT.709

Аудио #1
Идентификатор : 2
Формат : AAC
Формат/Информация : Advanced Audio Codec
Профиль формата : LC
Идентификатор кодека : 67
Продолжительность : 43 м.
Вид битрейта : Переменный
Битрейт : 192 Кбит/сек
Максимальный битрейт : 195 Кбит/сек
Каналы : 2 канала
Расположение каналов : Front: L R
Частота : 48,0 КГц
Метод сжатия : С потерями
Размер потока : 58,3 Мбайт (10%)
Язык : Russian
Дата кодирования : UTC 2014-06-28 15:54:45
Дата пометки : UTC 2014-06-28 15:55:00

Аудио #2
Идентификатор : 3
Формат : AAC
Формат/Информация : Advanced Audio Codec
Профиль формата : LC
Идентификатор кодека : 67
Продолжительность : 43 м.
Вид битрейта : Переменный
Битрейт : 192 Кбит/сек
Максимальный битрейт : 196 Кбит/сек
Каналы : 2 канала
Расположение каналов : Front: L R
Частота : 48,0 КГц
Метод сжатия : С потерями
Размер потока : 58,3 Мбайт (10%)
Язык : English
Дата кодирования : UTC 2014-06-28 15:54:53
Дата пометки : UTC 2014-06-28 15:55:00

скриншот   скриншот   скриншот   скриншот   скриншот   скриншот   скриншот   скриншот   скриншот   скриншот  

pb.wtf



Скачать Кости через торрент http://pic.kartinco.top/new/img/2014-06/29/m6iy91ra101kqdtsyst4ztwnp.png Скачать фильм Кости через торрент бесплантно в хорошем качестве Описание:Доктор Темперанс Бреннан - блестящий, но одинокий антрополог, получает то, чего она меньше всего желала - напарника. Бюро посылает ... 10 10 12
Info! Золотая раздача, скачанное не засчитывается.
Торрент: Зарегистрирован [2014-06-29 03:06] · скачан: 227 раз
Статус: √ проверено
Размер: 13.99 GB
Как cкачать? Как скачать Кости через торрент | qTorrent


>> Регистрируемся здесь <<






Отзывы и комментарии о схеме читаем и пишем здесь: ---> Отзывы и комментарии о схеме

Новые благодарочки в телеграм довольных пользователей:
скриншот   скриншот   скриншот   скриншот   скриншот

15-07-2014 06:30 Кости Скачать торрент  

странное окончание...pb.wtf



    Дорогой пользователь! Огромная просьба, поблагодарите релизера, оцените раздачу и оставьте свои комментарий, если Вы скачали Кости через торрент бесплатно! Внесите свою лепту в развитие PiratBit!
    Комментировать посты могут только пользователи прошедшие не сложную регистрацию
    Показать сообщения:    

    Кости через торрент
    Скачать бесплатно Кости
    Кости скачать торрент
    Кости смотреть онлайн
    Cкачать фильм Кости бесплатно
    Кости скачать торрент в хорошем качестве
    Кости смотреть онлайн бесплатно в хорошем качестве


    Вы не можете начинать темы
    Вы не можете отвечать на сообщения
    Вы не можете редактировать свои сообщения
    Вы не можете удалять свои сообщения
    Вы не можете голосовать в опросах
    Вы не можете прикреплять файлы к сообщениям
    Вы можете скачивать файлы