Ссылка на приватное зеркало нашего сайта всего за 1$. Внимание количество ограничено!!!

2 сезон

iTunes

1 сезон

1

iTunes

iTunes

iTunes

1 сезон

RePack

30

ИГРА 18+

pack

ВАЖНО

!!Акция!!

Alien_RageХит недели

RePack

MK11
pack

Забери бонус

RePack

jed

!!Акция!!

Alien_Rage

RePack

fifa19

RePack

Assassins Creed: Odyssey

RePack

NEED FOR SPEED™ PAYBACK

4 сезон

9 сезон

Бесстыжие 9 сезон

Все сериалы

все сериалы на PB.wtf

RePack

FAR CRY 5
  

Фрост против Никсона / Frost/Nixon (Рон Ховард) [2008 г., драма, история, BDRip 720p, Дубляж, Лицензия] pb.wtf

Фрост против Никсона через торрент pb.wtf

Размер: 6.89 GB | Добавлен: 6 лет 3 мес. назад | Торрент скачан:63 раза
Скачать  

29-06-2014 08:44 Фрост против Никсона Скачать торрент  

Фрост против Никсона / Frost/Nixon
Год выпуска: 2008
Страна: США, Великобритания, Франция
Жанр: драма, история
Продолжительность: 02:01:51
Перевод: Дубляж, Лицензия
Субтитры: русские (надписи и комментарии),украинские, английские, французские, польские,португальские, испанские

Режиссер: Рон Ховард
Продюссер: Тим Беван, Эрик Феллнер, Брайан Грейзер
Сценарий: Питер Морган

Бюджет: $25 000 000
Премьера в мире: 15 октября 2008



В ролях: Фрэнк Ланджелла, Майкл Шин, Сэм Рокуэлл, Кевин Бейкон, Мэтью Макфейден, Оливер Плэтт, Ребекка Холл, Тоби Джонс, Энди Милдер, Кейт Дженнингс Грант

Описание: США, 1977 год. Спустя три года после своей бесславной отставки, последовавшей после Уотергейтского скандала, экс-президент США Ричард Никсон нарушил молчание и дал эксклюзивное интервью британскому телеведущему Дэвиду Фросту. Но исповедь одиозного политика, на которую все рассчитывали, внезапно вылилась в захватывающую интеллектуальную баталию, вошедшую в золотые анналы американской тележурналистики.

скриншот   скриншот   скриншот   скриншот  
* До того, как Рон Ховард был выбран режиссером фильма, проектом интересовались Мартин Скорсезе, Майк Николс, Джордж Клуни, Сэм Мендес и Беннетт Миллер.
* За роль Никсона в оригинальном спектакле в 2007 году Фрэнк Ладжелла был удостоен театральной премии «Тони».
* Оба исполнителя главных ролей — Майкл Шин и Фрэнк Ланджелла — воплотили в картине образы, которые ранее создали на сцене. Рон Ховард согласился режиссировать фильм только в том случае, если студия позволит занять в главных ролях тех же актеров.
* За пределами съёмочной площадки актеры не выходили из своего образа и продолжали противостояние Фрост/Никсон, постоянно препираясь и высмеивая друг друга. Даже обращаясь к Фрэнку Ланджелле или просто упоминая его, все члены актерской и съёмочной команды, употребляли «мистер Президент».
* Когда Фрост уговаривает одного из студийных боссов купить его интервью, на заднем плане видно плакат M*A*S*H.
Качество: BDRip 720p
Формат: MKV
Видео кодек: AVC
Аудио кодек: AC3, DTS, VORBIS
Видео: 1280x544, (2,35:1), 23,976 кадра/сек, 6136 Кбит/сек, 0.368 бит/пикс
Аудио#1: 48,0 КГц, АС3, 6 каналов, 384 Кбит/сек (дубляж)
Аудио#2: 48,0 КГц, DTS , 6 каналов, 1510 Кбит/сек (оригинал)
Аудио#3: 48,0 КГц, VORBIS, 2 канала, 80 Кбит/сек (оригинал)
Общее
Уникальный идентификатор : 193967805995478244204855774417675734471 (0x91ECD730575A872C8EC289EBA79DCDC7)
Полное имя : D:\загрузки\Фрост против Никсона.2008.BDRip 720p.mkv
Формат : Matroska
Версия формата : Version 1
Размер файла : 6,89 Гбайт
Продолжительность : 2 ч. 1 м.
Режим общего битрейта : Переменный
Общий поток : 8098 Кбит/сек
Название фильма : Frost Nixon (2008) 720p BluRay DON - HDCLUB
Дата кодирования : UTC 2009-05-20 12:17:29
Программа кодирования : mkvmerge v2.6.0 ('Kelly watch the Stars') built on Mar 24 2009 15:23:17
Библиотека кодирования : libebml v0.7.7 + libmatroska v0.8.1
Attachment : Yes / Yes / Yes

Видео
Идентификатор : 1
Формат : AVC
Формат/Информация : Advanced Video Codec
Профиль формата : Main@L4.1
Параметр CABAC формата : Да
Параметр ReFrames формата : 12 кадров
Идентификатор кодека : V_MPEG4/ISO/AVC
Продолжительность : 2 ч. 1 м.
Битрейт : 6136 Кбит/сек
Ширина : 1280 пикселей
Высота : 544 пикселя
Соотношение сторон : 2,35:1
Режим частоты кадров : Постоянный
Частота кадров : 23,976 кадра/сек
Цветовое пространство : YUV
Субдискретизация насыщенности : 4:2:0
Битовая глубина : 8 бит
Тип развёртки : Прогрессивная
Бит/(Пиксели*Кадры) : 0.368
Размер потока : 5,08 Гбайт (74%)
Заголовок : ViDEO
Библиотека кодирования : x264 core 67 r1145M d2e1e1c
Настройки программы : cabac=1 / ref=12 / deblock=1:-3:-3 / analyse=0x1:0x111 / me=umh / subme=9 / psy_rd=1.3:0.1 / mixed_ref=1 / me_range=42 / chroma_me=1 / trellis=2 / 8x8dct=0 / cqm=0 / deadzone=21,11 / chroma_qp_offset=-3 / threads=3 / nr=0 / decimate=0 / mbaff=0 / bframes=8 / b_pyramid=1 / b_adapt=2 / b_bias=0 / direct=3 / wpredb=1 / keyint=250 / keyint_min=25 / scenecut=40 / rc=2pass / bitrate=6136 / ratetol=1.0 / qcomp=0.60 / qpmin=10 / qpmax=51 / qpstep=4 / cplxblur=20.0 / qblur=0.5 / ip_ratio=1.40 / pb_ratio=1.30 / aq=1:0.60
Язык : English
Default : Да
Forced : Нет

Аудио #1
Идентификатор : 2
Формат : AC-3
Формат/Информация : Audio Coding 3
Расширение режима : CM (complete main)
Параметр Endianness формата : Big
Идентификатор кодека : A_AC3
Продолжительность : 2 ч. 1 м.
Вид битрейта : Постоянный
Битрейт : 384 Кбит/сек
Каналы : 6 каналов
Расположение каналов : Front: L C R, Side: L R, LFE
Частота : 48,0 КГц
Битовая глубина : 16 бит
Метод сжатия : С потерями
Размер потока : 335 Мбайт (5%)
Заголовок : AC3 5.1 384 Kbps [Дубляж]
Язык : Russian
Default : Да
Forced : Нет

Аудио #2
Идентификатор : 3
Формат : DTS
Формат/Информация : Digital Theater Systems
Режим : 16
Параметр Endianness формата : Big
Идентификатор кодека : A_DTS
Продолжительность : 2 ч. 1 м.
Вид битрейта : Постоянный
Битрейт : 1510 Кбит/сек
Каналы : 6 каналов
Расположение каналов : Front: L C R, Side: L R, LFE
Частота : 48,0 КГц
Битовая глубина : 24 бит
Метод сжатия : С потерями
Размер потока : 1,29 Гбайт (19%)
Заголовок : DTS 5.1 1536 Kbps
Язык : English
Default : Нет
Forced : Нет

Аудио #3
Идентификатор : 4
Формат : Vorbis
Параметр Floor формата : 1
Идентификатор кодека : A_VORBIS
Продолжительность : 2 ч. 1 м.
Вид битрейта : Переменный
Битрейт : 80,0 Кбит/сек
Каналы : 2 канала
Частота : 48,0 КГц
Метод сжатия : С потерями
Размер потока : 69,7 Мбайт (1%)
Заголовок : Комментарии OGG 2.0 80 kbps
Библиотека кодирования : libVorbis 1.0 (UTC 2002-07-17)
Язык : English
Default : Нет
Forced : Нет
Программа кодирования : Made with BeSweet v1.5b31
Encoded_Application/Url : http://DSPguru.doom9.org

Текст #1
Идентификатор : 5
Формат : UTF-8
Идентификатор кодека : S_TEXT/UTF8
Идентификатор кодека/Информация : UTF-8 Plain Text
Заголовок : Надписи и прочее
Язык : Russian
Default : Да
Forced : Нет

Текст #2
Идентификатор : 6
Формат : UTF-8
Идентификатор кодека : S_TEXT/UTF8
Идентификатор кодека/Информация : UTF-8 Plain Text
Заголовок : Комментарии
Язык : Russian
Default : Нет
Forced : Нет

Текст #3
Идентификатор : 7
Формат : UTF-8
Идентификатор кодека : S_TEXT/UTF8
Идентификатор кодека/Информация : UTF-8 Plain Text
Язык : Ukrainian
Default : Нет
Forced : Нет

Текст #4
Идентификатор : 8
Формат : ASS
Идентификатор кодека : S_TEXT/ASS
Идентификатор кодека/Информация : Advanced Sub Station Alpha
Метод сжатия : Без потерь
Язык : English
Default : Нет
Forced : Нет

Текст #5
Идентификатор : 9
Формат : ASS
Идентификатор кодека : S_TEXT/ASS
Идентификатор кодека/Информация : Advanced Sub Station Alpha
Метод сжатия : Без потерь
Язык : French
Default : Нет
Forced : Нет

Текст #6
Идентификатор : 10
Формат : ASS
Идентификатор кодека : S_TEXT/ASS
Идентификатор кодека/Информация : Advanced Sub Station Alpha
Метод сжатия : Без потерь
Язык : Polish
Default : Нет
Forced : Нет

Текст #7
Идентификатор : 11
Формат : ASS
Идентификатор кодека : S_TEXT/ASS
Идентификатор кодека/Информация : Advanced Sub Station Alpha
Метод сжатия : Без потерь
Язык : Portuguese
Default : Нет
Forced : Нет

Текст #8
Идентификатор : 12
Формат : ASS
Идентификатор кодека : S_TEXT/ASS
Идентификатор кодека/Информация : Advanced Sub Station Alpha
Метод сжатия : Без потерь
Язык : Spanish
Default : Нет
Forced : Нет

pb.wtf



Скачать Фрост против Никсона через торрент http://pic.kartinco.top/images/6/4nbt9.jpg Скачать фильм Фрост против Никсона через торрент бесплантно в хорошем качестве Описание: США, 1977 год. Спустя три года после своей бесславной отставки, последовавшей после Уотергейтского скандала, экс-президент США ... 10 10 5
Info! Золотая раздача, скачанное не засчитывается.
Торрент: Зарегистрирован [2014-06-29 08:44] · скачан: 63 раз
Статус: √ проверено
Размер: 6.89 GB
Как cкачать? Как скачать Фрост против Никсона через торрент | qTorrent

% Раздел Тема Автор DL S | L
Фильмы [HD 720p, 1080p] (Хороший звук DUB, MVO) [ 14.29 GB ] Фрост против Никсона / Frost/Nixon [2008 история BDRip 1080p by msltel] DUB AVO msltel Скачать
1 | 0
Фильмы [HD 720p, 1080p] (Хороший звук DUB, MVO) [ 4.92 GB ] Фрост против Никсона / Frost/Nixon [2008 история BDRip 720p by msltel] DUB AVO msltel Скачать
1 | 0
Фильмы 2006-2008 [ 1.37 GB ] Фрост против Никсона / Frost/Nixon [2008 история DVDRip] VintMosina Скачать
1 | 0
Фильмы 2006-2008 [ 1.46 GB ] Фрост против Никсона / Frost/Nixon [2008 история HDTVRip] DEVI Скачать
1 | 0

28-11-2019 20:33  

Отключить всю рекламу на сайте

    Дорогой пользователь! Огромная просьба, поблагодарите релизера, оцените раздачу и оставьте свои комментарий, если Вы скачали Фрост против Никсона через торрент бесплатно! Внесите свою лепту в развитие PiratBit!
    Комментировать посты могут только пользователи прошедшие не сложную регистрацию
    Показать сообщения:    

    Фрост против Никсона через торрент
    Скачать бесплатно Фрост против Никсона
    Фрост против Никсона скачать торрент
    Фрост против Никсона смотреть онлайн
    Cкачать фильм Фрост против Никсона бесплатно
    Фрост против Никсона скачать торрент в хорошем качестве
    Фрост против Никсона смотреть онлайн бесплатно в хорошем качестве


    Вы не можете начинать темы
    Вы не можете отвечать на сообщения
    Вы не можете редактировать свои сообщения
    Вы не можете удалять свои сообщения
    Вы не можете голосовать в опросах
    Вы не можете прикреплять файлы к сообщениям
    Вы можете скачивать файлы