Anonymous, добрый вечер, присоединяйтесь к нам в Telegram!, здесь всегда актуальный адрес сайта, оперативная поддержка и многое другое!

>

5.6

iTunes

7.4

iTunes

7.9

MVO

1

7.7

1 сезон

6.8

iTunes

7.3

1 сезон

13

6.7

1 сезон

8.3

RePack

30

PREMIUM

pack

9.9

Лицензия

ВАЖНО

ИГРА 18+

pack

7.3

RePack

MK11

7.7

RePack

jed

7.8

RePack

fifa19

8.5

RePack

RDR2

RePack

NEED FOR SPEED™ PAYBACK

4 сезон

9 сезон

Бесстыжие 9 сезон

Все сериалы

все сериалы на PB.wtf

RePack

FAR CRY 5

Anonymous, добрый вечер, мы катастрофически не успеваем собрать деньги на оплату серверов, помогите нам пожалуйста 5,10,15р., для нас важна любая помощь . В качестве благодарности мы отключим Вам всю рекламу на сайте (укажите свой ник в строку Ваше имя)!

×
  
Magnet ссылка

Риддик / Riddick (1999-2013) [Дэвид Туи / David Twohy, США, фантастика, боевик, триллер, BDRip 720p / 60 FPS / Director's Cut / Трилогия] pb.wtf

Риддик через торрент pb.wtf

Размер: 20.08 GB | Добавлен: 7 лет 3 мес. назад | Торрент скачан:470 раз

нравится ли вам видео с 60 fps?

 да (31)

 нет (2)

Всего проголосовало : 33

Смотреть онлайн Риддик | Скачать    Ребята, помогите собрать деньги на оплату серверов!!!

29-06-2014 12:33 Риддик Скачать торрент  

Риддик / Riddick Жанр: Фантастика, Боевик, Триллер
Года производства: 1999, 2004, 2013
Произведено: США, Великобритания
Продолжительность: 01:51:55; 02:14:06; 02:06:48

Риддик предстаёт перед зрителями в качестве закоренелого уголовника, пойманного охотником за головами, так как за его голову объявлено вознаграждение. В одной из тюрем за двадцать ментоловых сигарет тюремный врач сделал ему операцию на глазах, поэтому его специфическое зрение, позволяющее видеть в темноте. В фильме раскрываются такие особенности его личности, как привычка говорить с самим собой, возможно из-за долгой изоляции в тюрьмах, скверный характер, сарказм и пристрастие к алкоголю и женщинам, что не мешает ему находиться в прекрасной физической форме и обладать чрезвычайно развитым обонянием.Риддик не знает своего прошлого и, постепенно разбираясь с ним, познаёт новые грани своей натуры. Постепенно при развитии сюжета выясняется, что он — вовсе не громила, готовый убивать без разбора; он обладает смекалкой, может анализировать ситуацию и делать верные выводы.

Риддик возвращается в следующей картине «Хроники Риддика» уже не столько в качестве озлобленного уголовника, сколько в качестве борца за свободу. Он заметно изменился, живя на далёкой покрытой снегами планете, сильно оброс. Впрочем, скоро он приобретает привычный для аудитории вид: гладко выбритая голова и тёмные очки. Он вновь и вновь использует свой нож, проявляя при этом звериную жестокость, но всё же пытается спасти единственных небезразличных ему людей, тех, кого он спас когда-то на далёкой планете от опасных хищников.

Сюжет фильма «Риддик» — продолжение событий первых двух частей, двух игр и мультфильма. Риддик хочет найти родную планету Фурию, но оказывается на дикой, где он в очередной раз должен выжить и победить — природу, чудовищ, наёмников

Дополнительная информация
В 2,5 раза больше кадров!
В 2,5 раза плавнее! (59,94 fps)
Чёрная дыра / Pitch Black
Год выпуска: 1999
Страна: США
Жанр: фантастика, боевик, триллер
Продолжительность: 01:51:55
Перевод: Профессиональный [Дубляж] + Многоголосый закадровый на вставки
Субтитры: Rus (полные), Eng (полные)

Режиссер: Дэвид Туи / David Twohy
В ролях: Вин Дизель (Richard B. Riddick), Рада Митчелл (Carolyn Fry), Коул Хаузер (William J. Johns), Кит Дэвид (Abu «Imam» al-Walid), Льюис Фиц-Джералд (Paris P. Ogilvie), Клаудия Блэк (Sharon «Shazza» Montgomery), Риана Гриффит (Jack / Jackie), Джон Мур (John «Zeke» Ezekiel), Саймон Бурк (Greg Owens), Лес Чэнтери (Suleiman), Сэм Сари (Hassan), Фирэсс Дирани (Ali)

Описание: В недалеком будущем космический корабль терпит бедствие, в результате чего совершает вынужденную посадку на отдаленной планете. Но в результате такой посадки погибает командир корабля, часть команды и большинство пассажиров.
Оставшиеся в живых оказываются одни на жуткой и безжизненной планете. Первое, что бросается в глаза - это то, что планета имеет три солнца, из-за чего все живое погибает в этой пустыне. Но как только планета погружается в темноту, появляются какие-то странные существа...

kinopoisk.ru: 7.628 (38 415)
imdb.com: 7.10 (163 961)
MPAA: R - Лицам до 17 лет обязательно присутствие взрослого

Качество: BDRip 720p
Формат: MKV
Видео кодек: AVC
Аудио кодек: AC3
Видео: AVC, 1280x544 (2.35:1), 7516 kbps, 59,940 fps, 0,180 bpp
Аудио дубляж: AC3 / 5.1 / 48 kHz / 448 kbps / 16 bit ||
Аудио киномания: AC3 / 5.1 / 48 kHz / 640 kbps / 16 bit ||
Аудио английский: AC3 / 5.1 / 48 kHz / 640 kbps / 16 bit



Общее
Уникальный идентификатор : 220519309222991548445835620523796499765 (0xA5E6795E471CACA2BB6839C39E3E8D35)
Полное имя : C:\закачки\Риддик 720p 60fps\Риддик 1 720p 60fps.mkv
Формат : Matroska
Версия формата : Version 4 / Version 2
Размер файла : 7,37 Гбайт
Продолжительность : 1 ч. 51 м.
Общий поток : 9432 Кбит/сек
Дата кодирования : UTC 2014-06-26 10:10:04
Программа кодирования : mkvmerge v7.0.0 ('Where We Going') 64bit built on Jun 9 2014 15:16:27
Библиотека кодирования : libebml v1.3.0 + libmatroska v1.4.1
DURATION : 01:51:52.704000000
NUMBER_OF_FRAMES : 209772
NUMBER_OF_BYTES : 537016320
_STATISTICS_WRITING_APP : mkvmerge v7.0.0 ('Where We Going') 64bit built on Jun 9 2014 15:16:27
_STATISTICS_WRITING_DATE_UTC : 2014-06-26 10:10:04
_STATISTICS_TAGS : BPS DURATION NUMBER_OF_FRAMES NUMBER_OF_BYTES
Attachment : Yes

Видео
Идентификатор : 1
Формат : AVC
Формат/Информация : Advanced Video Codec
Профиль формата : High@L4.1
Параметр CABAC формата : Да
Параметр ReFrames формата : 9 кадров
Идентификатор кодека : V_MPEG4/ISO/AVC
Продолжительность : 1 ч. 51 м.
Битрейт : 7516 Кбит/сек
Ширина : 1280 пикселей
Высота : 544 пикселя
Соотношение сторон : 2,35:1
Режим частоты кадров : Постоянный
Частота кадров : 59,880 кадров/сек
Частота кадров в оригинале : 59,940 кадров/сек
Цветовое пространство : YUV
Субдискретизация насыщенности : 4:2:0
Битовая глубина : 8 бит
Тип развёртки : Прогрессивная
Бит/(Пиксели*Кадры) : 0.180
Размер потока : 5,88 Гбайт (80%)
Библиотека кодирования : x264 core 130 r2273 b3065e6
Настройки программы : cabac=1 / ref=9 / deblock=1:-2:-2 / analyse=0x3:0 / me=umh / subme=9 / psy=1 / psy_rd=1.00:0.10 / mixed_ref=1 / me_range=24 / chroma_me=0 / trellis=1 / 8x8dct=1 / cqm=0 / deadzone=21,11 / fast_pskip=0 / chroma_qp_offset=-3 / threads=12 / lookahead_threads=1 / sliced_threads=0 / nr=0 / decimate=0 / interlaced=0 / bluray_compat=0 / constrained_intra=0 / bframes=6 / b_pyramid=2 / b_adapt=2 / b_bias=0 / direct=1 / weightb=1 / open_gop=0 / weightp=2 / keyint=599 / keyint_min=59 / scenecut=40 / intra_refresh=0 / rc=crf / mbtree=0 / crf=16.0 / qcomp=0.60 / qpmin=0 / qpmax=69 / qpstep=4 / ip_ratio=1.40 / pb_ratio=1.30 / aq=1:0.90
Язык : English
Default : Да
Forced : Нет
DURATION : 01:51:55.065000000
NUMBER_OF_FRAMES : 402501
NUMBER_OF_BYTES : 6463061855
_STATISTICS_WRITING_APP : mkvmerge v7.0.0 ('Where We Going') 64bit built on Jun 9 2014 15:16:27
_STATISTICS_WRITING_DATE_UTC : 2014-06-26 10:10:04
_STATISTICS_TAGS : BPS DURATION NUMBER_OF_FRAMES NUMBER_OF_BYTES

Аудио #1
Идентификатор : 2
Формат : AC-3
Формат/Информация : Audio Coding 3
Расширение режима : CM (complete main)
Параметр Endianness формата : Big
Идентификатор кодека : A_AC3
Продолжительность : 1 ч. 51 м.
Вид битрейта : Постоянный
Битрейт : 448 Кбит/сек
Каналы : 6 каналов
Расположение каналов : Front: L C R, Side: L R, LFE
Частота : 48,0 КГц
Битовая глубина : 16 бит
Метод сжатия : С потерями
Размер потока : 359 Мбайт (5%)
Заголовок : Dub+MVO
Язык : Russian
Default : Да
Forced : Нет

Аудио #2
Идентификатор : 3
Формат : AC-3
Формат/Информация : Audio Coding 3
Расширение режима : CM (complete main)
Параметр Endianness формата : Big
Идентификатор кодека : A_AC3
Продолжительность : 1 ч. 51 м.
Вид битрейта : Постоянный
Битрейт : 640 Кбит/сек
Каналы : 6 каналов
Расположение каналов : Front: L C R, Side: L R, LFE
Частота : 48,0 КГц
Битовая глубина : 16 бит
Метод сжатия : С потерями
Задержка видео : 16 мс.
Размер потока : 512 Мбайт (7%)
Заголовок : MVO
Язык : Russian
Default : Нет
Forced : Нет

Аудио #3
Идентификатор : 4
Формат : AC-3
Формат/Информация : Audio Coding 3
Расширение режима : CM (complete main)
Параметр Endianness формата : Big
Идентификатор кодека : A_AC3
Продолжительность : 1 ч. 51 м.
Вид битрейта : Постоянный
Битрейт : 640 Кбит/сек
Каналы : 6 каналов
Расположение каналов : Front: L C R, Side: L R, LFE
Частота : 48,0 КГц
Битовая глубина : 16 бит
Метод сжатия : С потерями
Размер потока : 512 Мбайт (7%)
Заголовок : Original
Язык : English
Default : Нет
Forced : Нет

Текст #1
Идентификатор : 5
Формат : UTF-8
Идентификатор кодека : S_TEXT/UTF8
Идентификатор кодека/Информация : UTF-8 Plain Text
Заголовок : Full
Язык : Russian
Default : Нет
Forced : Нет

Текст #2
Идентификатор : 6
Формат : UTF-8
Идентификатор кодека : S_TEXT/UTF8
Идентификатор кодека/Информация : UTF-8 Plain Text
Заголовок : Full
Язык : English
Default : Нет
Forced : Нет

Меню
00:00:00.000 : en:Chapter 1
00:02:56.884 : en:Chapter 2
00:08:28.007 : en:Chapter 3
00:17:05.857 : en:Chapter 4
00:27:13.631 : en:Chapter 5
00:32:27.987 : en:Chapter 6
00:36:49.914 : en:Chapter 7
00:46:49.389 : en:Chapter 8
00:56:08.907 : en:Chapter 9
01:02:45.677 : en:Chapter 10
01:08:07.750 : en:Chapter 11
01:14:22.291 : en:Chapter 12
01:20:00.502 : en:Chapter 13
01:25:38.800 : en:Chapter 14
01:30:14.908 : en:Chapter 15
01:38:59.975 : en:Chapter 16
01:43:37.877 : en:Chapter 17
01:46:13.867 : en:Chapter 18
Хроники Риддика / The Chronicles of Riddick
Год выпуска: 2004
Страна: США
Жанр: фантастика, боевик, триллер, приключения
Продолжительность: 02:14:06
Перевод: Профессиональный [Дубляж] + Многоголосый закадровый на вставки
Субтитры: Rus (полные), Eng (полные)

Режиссер: Дэвид Туи / David Twohy
В ролях: Вин Дизель (Riddick), Колм Фиор (Lord Marshal), Тэнди Ньютон (Dame Vaako), Джуди Денч (Aereon), Карл Урбан (Vaako), Алекса Давалос (Kyra), Лайнас Роуч (Purifier), Йорик ван Вагенинген (The Guv), Ник Чинланд (Toombs), Кит Дэвид (Imam), Марк Гиббон (Irgun), Роджер Р. Кросс (Toal)

Описание: Последние пять лет Риддик провел в бегах среди забытых миров на задворках галактики, прячась от наемников, назначивших цену за его голову. Теперь беглец оказался на планете Гелион, где живет прогрессивное многонациональное общество, завоеванное лордом Маршалом, фанатиком, решившим поработить человечество армадой своих воинов, некромонгеров.
Совершив побег из подземной тюрьмы, где температура колебалась от арктических ночей до вулканических дней, Риддик встречает Кайру, последнюю оставшуюся в живых женщину из раннего периода его жизни. Его попытки освободить себя и Кайру приводят их на борт главного корабля некромонгеров, где ему предстоит столкнуться с лордом Маршалом в апокалиптической битве не на жизнь, а на смерть.

kinopoisk.ru: 7.437 (54 151)
imdb.com: 6.70 (153 785)
MPAA: PG-13 - Детям до 13 лет просмотр не желателен

Качество: BDRip 720p
Формат: MKV
Видео кодек: AVC
Аудио кодек: AC3
Видео: AVC, 1280x536 (2.40:1), 5544 kbps, 59,940 fps, 0,135 bpp
Аудио дубляж: AC3 / 5.1 / 48 kHz / 640 kbps / 16 bit
Аудио CP Digital: AC3 / 5.1 / 48 kHz / 640 kbps / 16 bit
Аудио английский: AC3 / 5.1 / 48 kHz / 640 kbps / 16 bit



Общее
Уникальный идентификатор : 208555050480025407614160248921859535063 (0x9CE63DDE8FB7066CA86D52DA424BB0D7)
Полное имя : C:\закачки\Риддик 720p 60fps\Риддик 2 720p 60fps.mkv
Формат : Matroska
Версия формата : Version 4 / Version 2
Размер файла : 7,13 Гбайт
Продолжительность : 2 ч. 14 м.
Общий поток : 7616 Кбит/сек
Дата кодирования : UTC 2014-06-27 23:58:52
Программа кодирования : mkvmerge v7.0.0 ('Where We Going') 64bit built on Jun 9 2014 15:16:27
Библиотека кодирования : libebml v1.3.0 + libmatroska v1.4.1
DURATION : 02:02:43.610000000
NUMBER_OF_FRAMES : 919
NUMBER_OF_BYTES : 29486
_STATISTICS_WRITING_APP : mkvmerge v7.0.0 ('Where We Going') 64bit built on Jun 9 2014 15:16:27
_STATISTICS_WRITING_DATE_UTC : 2014-06-27 23:58:52
_STATISTICS_TAGS : BPS DURATION NUMBER_OF_FRAMES NUMBER_OF_BYTES

Видео
Идентификатор : 1
Формат : AVC
Формат/Информация : Advanced Video Codec
Профиль формата : High@L4.1
Параметр CABAC формата : Да
Параметр ReFrames формата : 9 кадров
Идентификатор кодека : V_MPEG4/ISO/AVC
Продолжительность : 2 ч. 14 м.
Битрейт : 5545 Кбит/сек
Ширина : 1280 пикселей
Высота : 536 пикселей
Соотношение сторон : 2,40:1
Режим частоты кадров : Постоянный
Частота кадров : 59,880 кадров/сек
Частота кадров в оригинале : 59,940 кадров/сек
Цветовое пространство : YUV
Субдискретизация насыщенности : 4:2:0
Битовая глубина : 8 бит
Тип развёртки : Прогрессивная
Бит/(Пиксели*Кадры) : 0.135
Размер потока : 5,19 Гбайт (73%)
Библиотека кодирования : x264 core 130 r2273 b3065e6
Настройки программы : cabac=1 / ref=9 / deblock=1:-2:-2 / analyse=0x3:0 / me=umh / subme=9 / psy=1 / psy_rd=1.00:0.10 / mixed_ref=1 / me_range=24 / chroma_me=0 / trellis=1 / 8x8dct=1 / cqm=0 / deadzone=21,11 / fast_pskip=0 / chroma_qp_offset=-3 / threads=12 / lookahead_threads=1 / sliced_threads=0 / nr=0 / decimate=0 / interlaced=0 / bluray_compat=0 / constrained_intra=0 / bframes=6 / b_pyramid=2 / b_adapt=2 / b_bias=0 / direct=1 / weightb=1 / open_gop=0 / weightp=2 / keyint=599 / keyint_min=59 / scenecut=40 / intra_refresh=0 / rc=crf / mbtree=0 / crf=16.0 / qcomp=0.60 / qpmin=0 / qpmax=69 / qpstep=4 / ip_ratio=1.40 / pb_ratio=1.30 / aq=1:0.90
Язык : English
Default : Да
Forced : Нет
DURATION : 02:14:05.930000000
NUMBER_OF_FRAMES : 482273
NUMBER_OF_BYTES : 5724510748
_STATISTICS_WRITING_APP : mkvmerge v7.0.0 ('Where We Going') 64bit built on Jun 9 2014 15:16:27
_STATISTICS_WRITING_DATE_UTC : 2014-06-27 23:58:52
_STATISTICS_TAGS : BPS DURATION NUMBER_OF_FRAMES NUMBER_OF_BYTES

Аудио #1
Идентификатор : 2
Формат : AC-3
Формат/Информация : Audio Coding 3
Расширение режима : CM (complete main)
Параметр Endianness формата : Big
Идентификатор кодека : A_AC3
Продолжительность : 2 ч. 14 м.
Вид битрейта : Постоянный
Битрейт : 640 Кбит/сек
Каналы : 6 каналов
Расположение каналов : Front: L C R, Side: L R, LFE
Частота : 48,0 КГц
Битовая глубина : 16 бит
Метод сжатия : С потерями
Размер потока : 614 Мбайт (8%)
Заголовок : Dub+MVO
Язык : Russian
Default : Да
Forced : Нет

Аудио #2
Идентификатор : 3
Формат : AC-3
Формат/Информация : Audio Coding 3
Расширение режима : CM (complete main)
Параметр Endianness формата : Big
Идентификатор кодека : A_AC3
Продолжительность : 2 ч. 14 м.
Вид битрейта : Постоянный
Битрейт : 640 Кбит/сек
Каналы : 6 каналов
Расположение каналов : Front: L C R, Side: L R, LFE
Частота : 48,0 КГц
Битовая глубина : 16 бит
Метод сжатия : С потерями
Размер потока : 614 Мбайт (8%)
Заголовок : MVO
Язык : Russian
Default : Нет
Forced : Нет

Аудио #3
Идентификатор : 4
Формат : AC-3
Формат/Информация : Audio Coding 3
Расширение режима : CM (complete main)
Параметр Endianness формата : Big
Идентификатор кодека : A_AC3
Продолжительность : 2 ч. 14 м.
Вид битрейта : Постоянный
Битрейт : 640 Кбит/сек
Каналы : 6 каналов
Расположение каналов : Front: L C R, Side: L R, LFE
Частота : 48,0 КГц
Битовая глубина : 16 бит
Метод сжатия : С потерями
Размер потока : 614 Мбайт (8%)
Заголовок : Original
Язык : English
Default : Нет
Forced : Нет

Текст #1
Идентификатор : 5
Формат : UTF-8
Идентификатор кодека : S_TEXT/UTF8
Идентификатор кодека/Информация : UTF-8 Plain Text
Заголовок : Full
Язык : Russian
Default : Нет
Forced : Нет

Текст #2
Идентификатор : 6
Формат : UTF-8
Идентификатор кодека : S_TEXT/UTF8
Идентификатор кодека/Информация : UTF-8 Plain Text
Заголовок : Full
Язык : English
Default : Нет
Forced : Нет

Меню
00:00:00.000 : en:The Necromongers
00:02:39.325 : en:Hard Bounty
00:07:05.508 : en:Back to Civilization
00:11:25.643 : en:A Fighting Chance
00:15:31.805 : en:A True Furyan
00:20:58.757 : en:Attack of the Necromongers
00:27:11.713 : en:Lensing & Cleansing
00:31:27.302 : en:The Lord Marshal's Offer
00:38:52.330 : en:Mind Regression
00:43:32.568 : en:Caught
00:47:18.418 : en:You Can Keep What You Kill
00:53:38.340 : en:Welcome to Crematoria
01:01:36.818 : en:Jack's Dead...
01:04:29.824 : en:A Private War
01:08:45.579 : en:Feeding Time
01:11:43.173 : en:Two Killers
01:17:19.051 : en:Good News & Bad News
01:22:50.006 : en:Running the Surface
01:29:05.131 : en:The Big Heat
01:32:42.473 : en:The Better Killer
01:41:13.650 : en:This Is Your Chance
01:44:28.220 : en:What Are the Odds?
01:48:15.197 : en:The Enemy Within
01:53:18.583 : en:Convert or Fall
01:57:02.682 : en:The Soul of a Furyan
02:00:00.693 : en:Kill the Beast
02:03:05.753 : en:At the Feet of an Outlaw
02:04:08.065 : en:End Titles
Риддик / Riddick
Год выпуска: 2013
Страна: США, Великобритания
Жанр: фантастика, боевик, триллер
Продолжительность: 02:06:47
Перевод: Профессиональный [Дубляж] + Двухголосный закадровый на вставки
Субтитры: Rus (полные), Eng (полные)

Режиссер: Дэвид Туи / David Twohy
В ролях: Вин Дизель (Riddick), Хорди Молья (Santana), Мэтью Нэйбл (Boss Johns), Кэти Сакхофф (Dahl), Дэйв Батиста (Diaz), Букем Вудбайн (Moss), Рауль Трухильо (Lockspur), Конрад Пла (Vargas), Дэнни Бланко (Falco), Карл Урбан (Vaako), Ной Дэнби (Nunez), Нил Напье (Rubio)

Описание: Преданный своими и брошенный умирать на пустынной планете, Риддик сражается с хищниками за жизнь и становится сильнее и опаснее себя прежнего. Открывшие на него охоту галактические наемники оказываются пешками в грандиозном плане отмщения. С врагами, возникающими на его пути тогда, когда это нужно самому Риддику, он начинает поход во имя мести, чтобы в конечном счете вернуться на родную Фурию и спасти ее от уничтожения.

kinopoisk.ru: 6.584 (37 418)
imdb.com: 6.40 (83 847)
MPAA: R - Лицам до 17 лет обязательно присутствие взрослого

Качество: BDRip 720p
Формат: MKV
Видео кодек: AVC
Аудио кодек: AC3
Видео: AVC, 1280x536 (2.40:1), 5146 kbps, 59,940 fps, 0,125 bpp
Аудио русский: AC3 / 5.1 / 48 kHz / 384 kbps / 16 bit
Аудио английский: AC3 / 5.1 / 48 kHz / 640 kbps / 16 bit



Общее
Уникальный идентификатор : 214226309229947470555203000873011056083 (0xA12A7C838A6A466DB3D1A073E7770DD3)
Полное имя : C:\закачки\Риддик 720p 60fps\Риддик 3 720p 60fps.mkv
Формат : Matroska
Версия формата : Version 4 / Version 2
Размер файла : 5,58 Гбайт
Продолжительность : 2 ч. 6 м.
Общий поток : 6296 Кбит/сек
Дата кодирования : UTC 2014-06-28 01:04:01
Программа кодирования : mkvmerge v7.0.0 ('Where We Going') 64bit built on Jun 9 2014 15:16:27
Библиотека кодирования : libebml v1.3.0 + libmatroska v1.4.1
DURATION : 02:01:18.403000000
NUMBER_OF_FRAMES : 1184
NUMBER_OF_BYTES : 32853
_STATISTICS_WRITING_APP : mkvmerge v7.0.0 ('Where We Going') 64bit built on Jun 9 2014 15:16:27
_STATISTICS_WRITING_DATE_UTC : 2014-06-28 01:04:01
_STATISTICS_TAGS : BPS DURATION NUMBER_OF_FRAMES NUMBER_OF_BYTES
Attachment : Yes

Видео
Идентификатор : 1
Формат : AVC
Формат/Информация : Advanced Video Codec
Профиль формата : High@L4.1
Параметр CABAC формата : Да
Параметр ReFrames формата : 9 кадров
Идентификатор кодека : V_MPEG4/ISO/AVC
Продолжительность : 2 ч. 6 м.
Битрейт : 5146 Кбит/сек
Ширина : 1280 пикселей
Высота : 536 пикселей
Соотношение сторон : 2,40:1
Режим частоты кадров : Постоянный
Частота кадров : 59,880 кадров/сек
Частота кадров в оригинале : 59,940 кадров/сек
Цветовое пространство : YUV
Субдискретизация насыщенности : 4:2:0
Битовая глубина : 8 бит
Тип развёртки : Прогрессивная
Бит/(Пиксели*Кадры) : 0.125
Размер потока : 4,56 Гбайт (82%)
Библиотека кодирования : x264 core 130 r2273 b3065e6
Настройки программы : cabac=1 / ref=9 / deblock=1:-2:-2 / analyse=0x3:0 / me=umh / subme=9 / psy=1 / psy_rd=1.00:0.10 / mixed_ref=1 / me_range=24 / chroma_me=0 / trellis=1 / 8x8dct=1 / cqm=0 / deadzone=21,11 / fast_pskip=0 / chroma_qp_offset=-3 / threads=12 / lookahead_threads=1 / sliced_threads=0 / nr=0 / decimate=0 / interlaced=0 / bluray_compat=0 / constrained_intra=0 / bframes=6 / b_pyramid=2 / b_adapt=2 / b_bias=0 / direct=1 / weightb=1 / open_gop=0 / weightp=2 / keyint=599 / keyint_min=59 / scenecut=40 / intra_refresh=0 / rc=crf / mbtree=0 / crf=16.0 / qcomp=0.60 / qpmin=0 / qpmax=69 / qpstep=4 / ip_ratio=1.40 / pb_ratio=1.30 / aq=1:0.90
Язык : English
Default : Да
Forced : Нет
DURATION : 02:06:47.541000000
NUMBER_OF_FRAMES : 455996
NUMBER_OF_BYTES : 5008583555
_STATISTICS_WRITING_APP : mkvmerge v7.0.0 ('Where We Going') 64bit built on Jun 9 2014 15:16:27
_STATISTICS_WRITING_DATE_UTC : 2014-06-28 01:04:01
_STATISTICS_TAGS : BPS DURATION NUMBER_OF_FRAMES NUMBER_OF_BYTES

Аудио #1
Идентификатор : 2
Формат : AC-3
Формат/Информация : Audio Coding 3
Расширение режима : CM (complete main)
Параметр Endianness формата : Big
Идентификатор кодека : A_AC3
Продолжительность : 2 ч. 6 м.
Вид битрейта : Постоянный
Битрейт : 384 Кбит/сек
Каналы : 6 каналов
Расположение каналов : Front: L C R, Side: L R, LFE
Частота : 48,0 КГц
Битовая глубина : 16 бит
Метод сжатия : С потерями
Размер потока : 348 Мбайт (6%)
Заголовок : Dub+MVO
Язык : Russian
Default : Да
Forced : Нет

Аудио #2
Идентификатор : 3
Формат : AC-3
Формат/Информация : Audio Coding 3
Расширение режима : CM (complete main)
Параметр Endianness формата : Big
Идентификатор кодека : A_AC3
Продолжительность : 2 ч. 6 м.
Вид битрейта : Постоянный
Битрейт : 640 Кбит/сек
Каналы : 6 каналов
Расположение каналов : Front: L C R, Side: L R, LFE
Частота : 48,0 КГц
Битовая глубина : 16 бит
Метод сжатия : С потерями
Размер потока : 580 Мбайт (10%)
Заголовок : Original
Язык : English
Default : Нет
Forced : Нет

Текст #1
Идентификатор : 4
Формат : UTF-8
Идентификатор кодека : S_TEXT/UTF8
Идентификатор кодека/Информация : UTF-8 Plain Text
Заголовок : Full
Язык : Russian
Default : Нет
Forced : Нет

Текст #2
Идентификатор : 5
Формат : UTF-8
Идентификатор кодека : S_TEXT/UTF8
Идентификатор кодека/Информация : UTF-8 Plain Text
Заголовок : Full
Язык : English
Default : Нет
Forced : Нет

Меню
00:00:00.000 : en:Chapter 01
00:05:35.418 : en:Chapter 02
00:12:10.521 : en:Chapter 03
00:23:27.364 : en:Chapter 04
00:27:56.424 : en:Chapter 05
00:32:11.220 : en:Chapter 06
00:38:03.698 : en:Chapter 07
00:44:20.282 : en:Chapter 08
00:48:40.876 : en:Chapter 09
00:56:19.667 : en:Chapter 10
01:01:16.672 : en:Chapter 11
01:07:35.092 : en:Chapter 12
01:15:23.435 : en:Chapter 13
01:19:58.835 : en:Chapter 14
01:26:51.831 : en:Chapter 15
01:31:27.106 : en:Chapter 16
01:39:32.716 : en:Chapter 17
01:45:32.701 : en:Chapter 18
01:53:45.652 : en:Chapter 19
02:02:56.160 : en:Chapter 20
pb.wtf



Скачать Риддик через торрент http://i1.imageban.ru/out/2014/06/28/210bdb04b7e5f061e246bf58458fa1f3.jpg Скачать, смотреть онлайн Риддик бесплантно в хорошем качестве Описание: В недалеком будущем космический корабль терпит бедствие, в результате чего совершает вынужденную посадку на отдаленной планете. ... 9.9 10 35
Info! Золотая раздача, скачанное не засчитывается.
Торрент: Зарегистрирован [2014-06-29 12:33] · скачан: 470 раз
Статус: √ проверено
Размер: 20.08 GB
Как cкачать? Как скачать Риддик через торрент | UTorrent

% Раздел Тема Автор DL S | L
Сборники (HD Video) [ 44.55 GB ] Риддик: Трилогия / Riddick: Trilogy [2000-2013 BDRip 1080p] DUB+MVO+DVO+AVO bober100 Скачать
1 | 0
Фильмы (WEB-DL 720p, 1080p) [ 8.67 GB ] Хроники Риддика / The Chronicles of Riddick [2004 WEB-DL 1080p ] DUB [Мосфильм-Мастер] bober100 Скачать
2 | 0
Фильмы 2001-2005 [ 2.05 GB ] Хроники Риддика / The Chronicles of Riddick [2004 . HDRip-AVC Полное Дублирование ] akcent Скачать
1 | 0
Фильмы 2001-2005 [ 2.05 GB ] Хроники Риддика / The Chronicles of Riddick [2004 DVDRip] Anonymous Скачать
1 | 0
Фильмы (Blu-ray, BD-Remux, HDDVD) [ 39.36 GB ] Риддик / Riddick [2013 BDRemux 1080p] DUB + 3xAVO [Расширенная Версия] sheker187 Скачать
1 | 0
Сборники и Сиквелы (48-60 fps) [ 28.82 GB ] Риддик / Riddick [Трилогия] [1999 2004 2013 BDRip 1080p DUB] 60fps [Director's Cut] Ворон Скачать
3 | 0
Видео (iPhone, iPod Touch) [ 3.6 GB ] Риддик / Riddick [2013 BDRip 1080p ] makarevich Скачать
1 | 0

28-11-2019 20:33  

Отключить всю рекламу на сайте

29-06-2014 13:20 Риддик Скачать торрент  

форсаж понравился при 60 fps, посмотрим и этиpb.wtf



29-06-2014 15:58 Риддик Скачать торрент  

____MPAA: R - Лицам до 17 лет обязательно присутствие взрослого____
мне 16, допустим, и че мне с мамой это смотреть? в обязательном порядке?pb.wtf



29-06-2014 16:35 Риддик Скачать торрент  

SLAVIK 1.01 писал(а):

____MPAA: R - Лицам до 17 лет обязательно присутствие взрослого____
мне 16, допустим, и че мне с мамой это смотреть? в обязательном порядке?

кинопоиск писал(а):

1. Что такое рейтинг MPAA?

Ассоциация MPAA (Американская Киноассоциация, Motion Picture Association of America) является родоначальницей рейтинговой системы, помогающей родителям оценить, подходят ли те или иные фильмы для просмотра их детьми.

Эта система не берёт на себя функции критика, она не определяет, плоха или хороша та или иная картина. Она не подвергает её цензуре, а лишь разъясняет потенциальные опасности для детских глаз. Причём, оценки выставляют сами родители — именно они на ротационной основе входят в правление администрации по классификации и рейтингам.

с кем хочешь смотриpb.wtf



29-06-2014 16:42 Риддик Скачать торрент  

KEYS,
спс .. постою на раздачеpb.wtf



29-06-2014 17:36 Риддик Скачать торрент  

Класс, как раз хотел посмотреть все части, а тут еще и 60 FPS )pb.wtf



29-06-2014 19:54 Риддик Скачать торрент  

срочно место нужно найти))) спс)) pb.wtf



29-06-2014 20:00 Риддик Скачать торрент  

В первой части (остальные пока не смотрел) при движении крупных объектов по экрану возникают сильные артефакты. Очень хорошо это видно в кадре № 81471 (22:39 М:С) где ствол пистолета просто исчезает. Это только у меня так?pb.wtf



30-06-2014 16:11 Риддик Скачать торрент  

lvdima писал(а):

В первой части (остальные пока не смотрел) при движении крупных объектов по экрану возникают сильные артефакты. Очень хорошо это видно в кадре № 81471 (22:39 М:С) где ствол пистолета просто исчезает. Это только у меня так?

в этом минус 60 фпс,у всех такpb.wtf



09-02-2018 07:08 Риддик Скачать торрент  

Авторская группа в ВК
Подпишите пожалуйстаpb.wtf



    Дорогой пользователь! Огромная просьба, поблагодарите релизера, оцените раздачу и оставьте свои комментарий, если Вы скачали Риддик через торрент бесплатно!
    Комментировать посты могут только пользователи прошедшие не сложную регистрацию
    Показать сообщения:    

    Риддик через торрент
    Скачать бесплатно Риддик
    Риддик скачать торрент
    Риддик смотреть онлайн
    Cкачать фильм Риддик бесплатно
    Риддик скачать торрент в хорошем качестве
    Риддик смотреть онлайн бесплатно в хорошем качестве


    Вы не можете начинать темы
    Вы не можете отвечать на сообщения
    Вы не можете редактировать свои сообщения
    Вы не можете удалять свои сообщения
    Вы не можете голосовать в опросах
    Вы не можете прикреплять файлы к сообщениям
    Вы можете скачивать файлы