Ссылка на приватное зеркало нашего сайта всего за 1$. Внимание количество ограничено!!!

2 сезон

iTunes

1 сезон

1

2 сезон

2 сезон

iTunes

1 сезон

RePack

30

Ultimate

ВАЖНО

ИГРА 18+

pack

RePack

MK11
pack

Забери бонус

RePack

jed

!!Акция!!

Alien_Rage

RePack

fifa19

RePack

Assassins Creed: Odyssey

RePack

NEED FOR SPEED™ PAYBACK

4 сезон

9 сезон

Бесстыжие 9 сезон

Все сериалы

все сериалы на PB.wtf

RePack

FAR CRY 5
  

Делириум / Delirium / Сезон: 1 / Серия 1 из ?? (Родриго Гарсия / Rodrigo García) [ 2014 , США , фантастика, фэнтези, мелодрама , WEBRip-AVC] MVO (BaibaKo) pb.wtf

Делириум через торрент pb.wtf

Размер: 595 MB | Добавлен: 6 лет 5 мес. назад | Торрент скачан:98 раз
Скачать  

30-06-2014 03:07 Делириум Скачать торрент  

Делириум / Delirium
Год выпуска: 2014
Страна: США
Жанр: фантастика, фэнтези, мелодрама, приключения
Продолжительность: ~00:43:20(Серия)
Перевод: Профессиональный (многоголосый, закадровый)(BaibaKo)
Субтитры: Нет
Режиссер: Родриго Гарсия / Rodrigo García
Сценарий: Керин Ашер / Karyn Usher, Лорен Оливер / Lauren Oliver
Продюсер: Дэннис Хаммер / Dennis Hammer, Митчелл Каплан / Mitchell Kaplan, Кими Армстронг Стейн / Kimi Armstrong Stein, Питер Чернин / Peter Chernin, Паула Мазур / Paula Mazur
Оператор: Игорь Жадю-Лилло / Igor Jadue-Lillo
В ролях:
Эмма Робертс (Lena Holoway), Грегг Салкин (Julian Fineman), Билл Кэмпбелл (Thomas Fineman), Дарен Кагасофф (Alex Sheathes), Майкл Мишель (Elyse Hargrove), Мелинда МакГроу (Lydia), Эрин Кехилл (Rachel Holoway), Йен Энтони Дэйл (Liam), Линк Хэнд (Officer), Джанин Мэйсон (Hana Tate), Кори Рейнольдс (Tack), Бренда Ку (Ren)
Описание:
Недалекое будущее. Мир, в котором запрещена любовь, потому что любовь - болезнь, опаснейшая амор делириа, и человеку, нарушившему запрет, грозит жестокое наказание. Посему любой гражданин, достигший восемнадцатилетнего возраста, обязан пройти процедуру освобождения от памяти прошлого, несущего в себе микробы болезни.
Это история Лины, девушки, которой до процедуры остается несколько месяцев. И она наверняка повторила бы судьбу большинства законопослушных граждан, если бы не встретила человека, резко изменившего ее взгляд на окружающий мир.
Рейтинг
kinopoisk.ru: 6.333 (88)
imdb.com: 8.60 (192)
Качество: WEBRip-AVC
Формат: MPEG-4
Видео кодек: AVC
Аудио кодек: AAC (LC)
Видео: 1536 Кбит/сек, 720*400 (16:9), в 23,976 кадра/сек, AVC
Аудио №1: Русский 192 Кбит/сек, 44,1 КГц, 2 канала, AAC (LC)
Аудио №2: Английский 192 Кбит/сек, 44,1 КГц, 2 канала, AAC (LC) Раздача ведётся путём добавления новых серийДобавлена 1 серия (30.06.2014)Просьба перекачать торрент файл

Внимание! Раздача ведётся путём добавления новых серий; при каждом добавлении создётся новый торрент. Чтобы начать докачку новой серии, пользователям необходимо сделать следующее:
(1) остановить скачивание,
(2) удалить старый торрент у себя из клиента (старые серии удалять не надо),
(3) скачать новый торрент и запустить его у себя в клиенте вместо старого, при этом указать клиенту путь в старую папку куда и должно происходить скачивание новых серий.
Ваш клиент при этом должен произвести хеширование (проверку) старой папки (если не производит сам - помогите ему сделать это), и будет докачивать только те серии которых у вас ещё нет. Старые серии при этом не удаляются, а продолжают раздаваться!
Eсли вы уже удалили старые серии, то предотвратить повторную закачку старых серий можно, отжав галочку в соответсвующих местах при запуске нового торрента. По возможности, желательно не удалять старые серии как можно дольше чтобы релизёр не столько продолжал раздавать старые серии, а смог сконцентрироваться на новых.

Общее
Полное имя : D:\Фильмы\Делириум2014\Delirium.s01e01.WEBRip.x264.Rus-Eng.BaibaKo.tv.mp4
Формат : MPEG-4
Профиль формата : Base Media
Идентификатор кодека : isom
Размер файла : 595 Мбайт
Продолжительность : 43 м.
Режим общего битрейта : Переменный
Общий поток : 1920 Кбит/сек
Дата кодирования : UTC 2014-06-29 19:20:39
Дата пометки : UTC 2014-06-29 19:20:39

Видео
Идентификатор : 1
Формат : AVC
Формат/Информация : Advanced Video Codec
Профиль формата : Baseline@L3.0
Параметр CABAC формата : Нет
Параметр ReFrames формата : 3 кадра
Идентификатор кодека : avc1
Идентификатор кодека/Информация : Advanced Video Coding
Продолжительность : 43 м.
Битрейт : 1536 Кбит/сек
Максимальный битрейт : 8492 Кбит/сек
Ширина : 720 пикселей
Высота : 400 пикселей
Соотношение сторон : 16:9
Режим частоты кадров : Переменный
Частота кадров : 23,976 кадра/сек
Минимальная частота кадров : 23,974 кадра/сек
Максимальная частота кадров : 23,981 кадра/сек
Цветовое пространство : YUV
Субдискретизация насыщенности : 4:2:0
Битовая глубина : 8 бит
Тип развёртки : Прогрессивная
Бит/(Пиксели*Кадры) : 0.222
Размер потока : 476 Мбайт (80%)
Библиотека кодирования : x264 core 130 r2273 b3065e6
Настройки программы : cabac=0 / ref=3 / deblock=1:0:0 / analyse=0x1:0x111 / me=hex / subme=7 / psy=1 / psy_rd=1.00:0.00 / mixed_ref=1 / me_range=16 / chroma_me=1 / trellis=1 / 8x8dct=0 / cqm=0 / deadzone=21,11 / fast_pskip=1 / chroma_qp_offset=-2 / threads=12 / lookahead_threads=2 / sliced_threads=0 / nr=0 / decimate=1 / interlaced=0 / bluray_compat=0 / constrained_intra=0 / bframes=0 / weightp=0 / keyint=240 / keyint_min=24 / scenecut=40 / intra_refresh=0 / rc_lookahead=40 / rc=2pass / mbtree=1 / bitrate=1536 / ratetol=1.0 / qcomp=0.60 / qpmin=0 / qpmax=69 / qpstep=4 / cplxblur=20.0 / qblur=0.5 / ip_ratio=1.40 / aq=1:1.00
Дата кодирования : UTC 2014-06-29 19:05:51
Дата пометки : UTC 2014-06-29 19:20:57
Основные цвета : BT.709
Характеристики трансфера : BT.709
Коэффициенты матрицы : BT.709

Аудио #1
Идентификатор : 2
Формат : AAC
Формат/Информация : Advanced Audio Codec
Профиль формата : LC
Идентификатор кодека : 67
Продолжительность : 43 м.
Вид битрейта : Переменный
Битрейт : 192 Кбит/сек
Максимальный битрейт : 199 Кбит/сек
Каналы : 2 канала
Расположение каналов : Front: L R
Частота : 44,1 КГц
Метод сжатия : С потерями
Размер потока : 58,8 Мбайт (10%)
Язык : Russian
Дата кодирования : UTC 2014-06-29 19:20:45
Дата пометки : UTC 2014-06-29 19:20:57

Аудио #2
Идентификатор : 3
Формат : AAC
Формат/Информация : Advanced Audio Codec
Профиль формата : LC
Идентификатор кодека : 67
Продолжительность : 43 м.
Вид битрейта : Переменный
Битрейт : 192 Кбит/сек
Максимальный битрейт : 199 Кбит/сек
Каналы : 2 канала
Расположение каналов : Front: L R
Частота : 44,1 КГц
Метод сжатия : С потерями
Размер потока : 58,8 Мбайт (10%)
Язык : English
Дата кодирования : UTC 2014-06-29 19:20:49
Дата пометки : UTC 2014-06-29 19:20:57

скриншот   скриншот   скриншот   скриншот   скриншот   скриншот   скриншот   скриншот   скриншот   скриншот  

pb.wtf



Скачать Делириум через торрент http://pic.kartinco.top/new/img/2014-06/30/ymhy0lpzd7qg7oq2vdmkjrcuv.png Скачать фильм Делириум через торрент бесплантно в хорошем качестве Описание:Недалекое будущее. Мир, в котором запрещена любовь, потому что любовь - болезнь, опаснейшая амор делириа, и человеку, нарушившему ... 10 10 5
Торрент: Зарегистрирован [2014-06-30 03:07] · скачан: 98 раз
Статус: √ проверено
Размер: 595 MB
Как cкачать? Как скачать Делириум через торрент | qTorrent

28-11-2019 20:33  

Отключить всю рекламу на сайте

30-06-2014 09:30 Делириум Скачать торрент  

Цитата:

Серия 1 из ??

из 1. Сериал отменили ещё до эфира.pb.wtf



22-07-2014 14:03 Делириум Скачать торрент  

Messa-fan писал(а):

Цитата:

Серия 1 из ??

из 1. Сериал отменили ещё до эфира.

а почему?pb.wtf



    Дорогой пользователь! Огромная просьба, поблагодарите релизера, оцените раздачу и оставьте свои комментарий, если Вы скачали Делириум через торрент бесплатно! Внесите свою лепту в развитие PiratBit!
    Комментировать посты могут только пользователи прошедшие не сложную регистрацию
    Показать сообщения:    

    Делириум через торрент
    Скачать бесплатно Делириум
    Делириум скачать торрент
    Делириум смотреть онлайн
    Cкачать фильм Делириум бесплатно
    Делириум скачать торрент в хорошем качестве
    Делириум смотреть онлайн бесплатно в хорошем качестве


    Вы не можете начинать темы
    Вы не можете отвечать на сообщения
    Вы не можете редактировать свои сообщения
    Вы не можете удалять свои сообщения
    Вы не можете голосовать в опросах
    Вы не можете прикреплять файлы к сообщениям
    Вы можете скачивать файлы