Ссылка на приватное зеркало всего за 1$. Внимание количество ограничено!!!

iTunes

iTunes

iTunes

1

iTunes

iTunes

iTunes

iTunes

iTunes

30
pack

$ от Little Big

ВАЖНО

!!Акция!!

Alien_RageХит недели

RePack

Resident Evil 21

ИГРА 18+

pack

RePack

jed

!!Акция!!

Alien_Rage

RePack

fifa19

RePack

Assassins Creed: Odyssey

RePack

NEED FOR SPEED™ PAYBACK

4 сезон

9 сезон

Бесстыжие 9 сезон

Все сериалы

все сериалы на PB.wtf

RePack

FAR CRY 5
  

…А в душе я танцую / Inside I'm Dancing (Дэмиен О’Доннелл) [2004 г., драма, комедия, мелодрама, WEB-DL 720p] 2x MVO + Original Eng pb.wtf

…А в душе я танцую через торрент pb.wtf

Раздают: 1 [ 0 KB/s ]
Размер: 3.79 GB | Добавлен: 6 лет назад | Торрент скачан:454 раза
Скачать  

30-06-2014 11:15 …А в душе я танцую Скачать торрент  

…А в душе я танцую / Inside I'm Dancing
Год выпуска: 2004
Страна: Великобритания, Ирландия, Франция
Жанр: драма, комедия, мелодрама
Продолжительность: 01:44:01
Перевод: 2х Профессиональный многоголосый, закадровый
Субтитры: 2х Русские, Английские

Режиссер: Дэмиен О’Доннелл
Продюссер: Тим Беван, Эрик Феллнер, Джеймс Флинн
Сценарий: Джефри Кейн, Кристиан О’Рейли

Премьера в мире: 10 октября 2004

rating
В ролях: Джеймс МакЭвой / James McAvoy (Rory O'Shea), Стивен Робертсон / Steven Robertson (Michael Connolly), Ромола Гарай / Romola Garai (Siobhan), Джерард МакСорли / Gerard McSorley (Fergus Connolly), Том Хикки / Tom Hickey (Con O'Shea), Бренда Фрикер / Brenda Fricker (Eileen), Алан Кинг / Alan King (Tommy), Рут МакКейб / Ruth McCabe (Annie)
Описание: Майклу 24 года, и почти всю свою жизнь он провел в доме для инвалидов, куда попал с церебральным параличом. Он знакомится с новым пациентом клиники — Рори О’Ши, которого приковала к инвалидной коляске мышечная атрофия. Как и Майкл, он практически не может передвигаться, но это не мешает Рори по-своему наслаждаться жизнью. Его смелость и безразличие к ударам судьбы становятся отличным примером для Майкла.
Качество: WEB-DL 720p
Формат: MKV
Видео кодек: AVC
Аудио кодек: AC3
Видео: 1280x544 (2.35:1), 23.976 fps, AVC, 3 902 Kbps
Аудио#1: AC3, 448 Kbps, 48.0 KHz, 6 ch |Многоголосый закадровый, R5|
Аудио#2: AC3, 384 Kbps, 48.0 KHz, 6 ch |Многоголосый закадровый|
Аудио#3: AC3, 384 Kbps, 48.0 KHz, 6 ch |Оригинал, ENG|
Релиз от:
HDCLUB
скриншот   скриншот   скриншот   скриншот   скриншот  

General
Complete name : Inside I'm Dancing.2004.WEB-DL 720.HDCLUB.mkv
Format : Matroska
File size : 3.79 GiB
Duration : 1h 44mn
Overall bit rate : 5 222 Kbps
Encoded date : UTC 2013-06-22 16:05:13
Writing application : mkvmerge v6.2.0 ('Promised Land') built on Apr 28 2013 12:22:01
Writing library : libebml v1.3.0 + libmatroska v1.4.0

Video
ID : 1
Format : AVC
Format/Info : Advanced Video Codec
Format profile : Main@L3.1
Format settings, CABAC : No
Format settings, ReFrames : 2 frames
Format settings, GOP : M=2, N=32
Muxing mode : Container profile=Unknown@3.1
Codec ID : V_MPEG4/ISO/AVC
Duration : 1h 44mn
Bit rate : 3 902 Kbps
Width : 1 280 pixels
Height : 544 pixels
Display aspect ratio : 2.35:1
Frame rate : 23.976 fps
Color space : YUV
Chroma subsampling : 4:2:0
Bit depth : 8 bits
Scan type : Progressive
Bits/(Pixel*Frame) : 0.234
Stream size : 2.84 GiB (75%)
Color primaries : BT.709-5, BT.1361, IEC 61966-2-4, SMPTE RP177
Transfer characteristics : BT.709-5, BT.1361
Matrix coefficients : BT.709-5, BT.1361, IEC 61966-2-4 709, SMPTE RP177

Audio #1
ID : 2
Format : AC-3
Format/Info : Audio Coding 3
Mode extension : CM (complete main)
Codec ID : A_AC3
Duration : 1h 44mn
Bit rate mode : Constant
Bit rate : 448 Kbps
Channel(s) : 6 channels
Channel positions : Front: L C R, Side: L R, LFE
Sampling rate : 48.0 KHz
Bit depth : 16 bits
Stream size : 333 MiB (9%)
Title : R5
Language : Russian

Audio #2
ID : 3
Format : AC-3
Format/Info : Audio Coding 3
Mode extension : CM (complete main)
Codec ID : A_AC3
Duration : 1h 44mn
Bit rate mode : Constant
Bit rate : 384 Kbps
Channel(s) : 6 channels
Channel positions : Front: L C R, Side: L R, LFE
Sampling rate : 48.0 KHz
Bit depth : 16 bits
Stream size : 286 MiB (7%)
Title : MVO
Language : Russian

Audio #3
ID : 4
Format : AC-3
Format/Info : Audio Coding 3
Mode extension : CM (complete main)
Codec ID : A_AC3
Duration : 1h 44mn
Bit rate mode : Constant
Bit rate : 384 Kbps
Channel(s) : 6 channels
Channel positions : Front: L C R, Side: L R, LFE
Sampling rate : 48.0 KHz
Bit depth : 16 bits
Stream size : 286 MiB (7%)

Text #1
ID : 5
Format : UTF-8
Codec ID : S_TEXT/UTF8
Codec ID/Info : UTF-8 Plain Text
Title : MVO R5
Language : Russian

Text #2
ID : 6
Format : UTF-8
Codec ID : S_TEXT/UTF8
Codec ID/Info : UTF-8 Plain Text
Title : MVO
Language : Russian

Text #3
ID : 7
Format : UTF-8
Codec ID : S_TEXT/UTF8
Codec ID/Info : UTF-8 Plain Text

Menu
00:00:00.000 : en:1
00:03:06.000 : en:2
00:07:23.000 : en:3
00:14:20.000 : en:4
00:17:56.000 : en:5
00:23:31.000 : en:6
00:29:18.000 : en:7
00:32:15.000 : en:8
00:36:39.000 : en:9
00:42:50.000 : en:10
00:45:41.000 : en:11
00:52:22.000 : en:12
00:56:34.000 : en:13
01:03:44.000 : en:14
01:10:59.000 : en:15
01:18:27.000 : en:16
01:25:02.000 : en:17
01:32:36.000 : en:18
01:36:15.000 : en:19
01:40:25.000 : en:20

pb.wtf



Скачать …А в душе я танцую через торрент http://pic.kartinco.top/new/img/2014-06/30/3m9ostc69tkf64txalc1lwazu.png Скачать фильм …А в душе я танцую через торрент бесплантно в хорошем качестве Описание: Майклу 24 года, и почти всю свою жизнь он провел в доме для инвалидов, куда попал с церебральным параличом. Он знакомится с новым ... 9.7 10 11
Info! Серебряная раздача, засчитывается только 50% скачанного.
Торрент: Зарегистрирован [2014-06-30 11:15] · скачан: 454 раз
Статус: √ проверено
Размер: 3.79 GB
Как cкачать? Как скачать …А в душе я танцую через торрент | qTorrent



Последний раз редактировалось: -Lexx- (2018-11-28 20:22), всего редактировалось 2 раз(а)

28-11-2019 20:33  

Отключить всю рекламу на сайте

30-06-2014 16:13 …А в душе я танцую Скачать торрент  

Качать не стану, смотрел. Вы вообще в курсе, что это хороший фильм? Нет, не так. Вы вообще в курсе что это ОБАЛДЕННЫЙ фильм? Спасибо за HD, когда я искал- не было нигде.pb.wtf



28-11-2018 16:33 …А в душе я танцую Скачать торрент  

Невероятный фильм. Советую посмотреть каждому.pb.wtf



    Дорогой пользователь! Огромная просьба, поблагодарите релизера, оцените раздачу и оставьте свои комментарий, если Вы скачали …А в душе я танцую через торрент бесплатно! Внесите свою лепту в развитие PiratBit!
    Комментировать посты могут только пользователи прошедшие не сложную регистрацию
    Показать сообщения:    

    …А в душе я танцую через торрент
    Скачать бесплатно …А в душе я танцую
    …А в душе я танцую скачать торрент
    …А в душе я танцую смотреть онлайн
    Cкачать фильм …А в душе я танцую бесплатно
    …А в душе я танцую скачать торрент в хорошем качестве
    …А в душе я танцую смотреть онлайн бесплатно в хорошем качестве


    Вы не можете начинать темы
    Вы не можете отвечать на сообщения
    Вы не можете редактировать свои сообщения
    Вы не можете удалять свои сообщения
    Вы не можете голосовать в опросах
    Вы не можете прикреплять файлы к сообщениям
    Вы можете скачивать файлы