2 сезон

iTunes

1 сезон

1

iTunes

iTunes

iTunes

1 сезон

RePack

30

ИГРА 18+

pack

ВАЖНО

!!Акция!!

Alien_RageХит недели

RePack

MK11
pack

Забери бонус

RePack

jed

!!Акция!!

Alien_Rage

RePack

fifa19

RePack

Assassins Creed: Odyssey

RePack

NEED FOR SPEED™ PAYBACK

4 сезон

9 сезон

Бесстыжие 9 сезон

Все сериалы

все сериалы на PB.wtf

RePack

FAR CRY 5
  

Внеземной / ETXR (Тревор Сэндс / Trevor Sands) [2014, США, фантастика, приключения, музыка, WEB-DLRip, Любительский (двухголосый) pb.wtf

Внеземной через торрент pb.wtf

Размер: 1.02 GB | Добавлен: 6 лет 4 мес. назад | Торрент скачан:255 раз
Скачать  

30-06-2014 16:30 Внеземной Скачать торрент  

Внеземной / ETXR


Год выпуска: 2014
Страна: США
Жанр:фантастика, приключения, музыка
Продолжительность:01:18:04
Перевод:Любительский (двухголосый)[HamsterStudio]

Субтитры: Нет
Режиссер:Тревор Сэндс / Trevor Sands

  • В ролях:

    Калеб Хант (Matthew «Bix» Laughlin), Джереми Люк (Danny Fishmonger), Леви Филер (Curtis Garret), Брайан Хоуи (Cece), Линдси Морган (Florence), Ксандер Беркли (Gordon Shafer), Дэн Донохью (Agent Blake), Питер Дуглас (Kevin), Брендан Хант (Tweaker), Мэтт Нолан (Agent Greg), Адриан Киньонез (Gun man), Даниэль Моне Троуэр (Kay)

  • Описание:
    DJ Жучок Бикскто вступает во владение Teсласкопа - легендарного изобретения Николы Теслы, который утверждает, что был способен принимать сигналы с других миров.

  • Мировая премьера:31 марта 2014


      Качество: WEB-DLRip
      Формат: AVI
      Видео кодек: XviD
      Аудио кодек:MP3
      Видео: XviD, 720x400 (16:9), 1596 kbps, 23,976 fps, 0,231 bpp
      Аудио №1: MP3 / 2.0 / 48 kHz / 128 kbps / RUS
      Аудио №2: MP3 / 2.0 / 48 kHz / 128 kbps / ENG


    Код:

    General
    Complete name                            : D:\Торенты\ETXR.2014.L2.WEBDLRip.Hamster.avi
    Format                                   : AVI
    Format/Info                              : Audio Video Interleave
    File size                                : 1.02 GiB
    Duration                                 : 1h 18mn
    Overall bit rate                         : 1 866 Kbps
    Writing application                      : VirtualDubMod 1.5.10.2 (build 2540/release)
    Writing library                          : VirtualDubMod build 2540/release

    Video
    ID                                       : 0
    Format                                   : MPEG-4 Visual
    Format profile                           : Advanced Simple@L5
    Format settings, BVOP                    : 2
    Format settings, QPel                    : No
    Format settings, GMC                     : No warppoints
    Format settings, Matrix                  : Default (MPEG)
    Codec ID                                 : XVID
    Codec ID/Hint                            : XviD
    Duration                                 : 1h 18mn
    Bit rate                                 : 1 596 Kbps
    Width                                    : 720 pixels
    Height                                   : 400 pixels
    Display aspect ratio                     : 16:9
    Frame rate                               : 23.976 fps
    Color space                              : YUV
    Chroma subsampling                       : 4:2:0
    Bit depth                                : 8 bits
    Scan type                                : Progressive
    Compression mode                         : Lossy
    Bits/(Pixel*Frame)                       : 0.231
    Stream size                              : 891 MiB (86%)
    Writing library                          : XviD 1.2.1 (UTC 2008-12-04)

    Audio #1
    ID                                       : 1
    Format                                   : MPEG Audio
    Format version                           : Version 1
    Format profile                           : Layer 3
    Mode                                     : Joint stereo
    Mode extension                           : MS Stereo
    Codec ID                                 : 55
    Codec ID/Hint                            : MP3
    Duration                                 : 1h 18mn
    Bit rate mode                            : Constant
    Bit rate                                 : 128 Kbps
    Channel(s)                               : 2 channels
    Sampling rate                            : 48.0 KHz
    Compression mode                         : Lossy
    Stream size                              : 71.5 MiB (7%)
    Alignment                                : Aligned on interleaves
    Interleave, duration                     : 42 ms (1.00 video frame)
    Interleave, preload duration             : 504 ms

    Audio #2
    ID                                       : 2
    Format                                   : MPEG Audio
    Format version                           : Version 1
    Format profile                           : Layer 3
    Mode                                     : Joint stereo
    Mode extension                           : MS Stereo
    Codec ID                                 : 55
    Codec ID/Hint                            : MP3
    Duration                                 : 1h 18mn
    Bit rate mode                            : Constant
    Bit rate                                 : 128 Kbps
    Channel(s)                               : 2 channels
    Sampling rate                            : 48.0 KHz
    Compression mode                         : Lossy
    Stream size                              : 71.5 MiB (7%)
    Alignment                                : Aligned on interleaves
    Interleave, duration                     : 42 ms (1.00 video frame)
    Interleave, preload duration             : 504 ms

    Скриншоты:

    Каталог Новинок (Фильмы-трейлеры, Игры, Сериалы, Мультфильмы)

    © Оформление by Raven
    pb.wtf



  • Скачать Внеземной через торрент http://i62.fastpic.ru/big/2014/0630/e9/0b0c2f14590231c1cc4092696f3604e9.jpg Скачать фильм Внеземной через торрент бесплантно в хорошем качестве Описание:DJ Жучок Бикскто вступает во владение Teсласкопа - легендарного изобретения Николы Теслы, который утверждает, что был способен ... 8.7 10 14
    Торрент: Зарегистрирован [2014-06-30 16:30] · скачан: 255 раз
    Статус: T временная
    Размер: 1.02 GB
    Как cкачать? Как скачать Внеземной через торрент | qTorrent

    28-11-2019 20:33  

    Отключить всю рекламу на сайте

    30-06-2014 18:03 Внеземной Скачать торрент  

    Соломон Немни писал(а):

    Там вообще то сюжет есть? Или весь фильм только какая то концертная музыка играет и они стихами общаются?

    какая-то музыка играет и больше ничего(если это фильм???)pb.wtf



    30-06-2014 19:50 Внеземной Скачать торрент  

    GAS писал(а):

    [qpost=undefined]акая-то музыка играет и больше ничего(если это фильм???)

    жанр фантастика, приключения, музыкаpb.wtf



    03-07-2014 23:17 Внеземной Скачать торрент  

    Эпичное трололо для тех кто под тяжелыми наркотиками...pb.wtf



    07-07-2014 08:46 Внеземной Скачать торрент  

    operokunp писал(а):

    Эпичное трололо для тех кто под тяжелыми наркотиками...

    вот это точно..pb.wtf



      Дорогой пользователь! Огромная просьба, поблагодарите релизера, оцените раздачу и оставьте свои комментарий, если Вы скачали Внеземной через торрент бесплатно! Внесите свою лепту в развитие PiratBit!
      Комментировать посты могут только пользователи прошедшие не сложную регистрацию
      Показать сообщения:    

      Внеземной через торрент
      Скачать бесплатно Внеземной
      Внеземной скачать торрент
      Внеземной смотреть онлайн
      Cкачать фильм Внеземной бесплатно
      Внеземной скачать торрент в хорошем качестве
      Внеземной смотреть онлайн бесплатно в хорошем качестве


      Вы не можете начинать темы
      Вы не можете отвечать на сообщения
      Вы не можете редактировать свои сообщения
      Вы не можете удалять свои сообщения
      Вы не можете голосовать в опросах
      Вы не можете прикреплять файлы к сообщениям
      Вы можете скачивать файлы