Всегда рабочее зеркало без VPN и Proxy просто перед .vidak.icu напиши любое слово или цифру, Пример http://d3fy.vidak.icu

MVO

MVO

1 сезон

1

1 сезон

iTunes

1 сезон

13

1 сезон

Deluxe

pack

Рекомендуем

Repack

30

ВАЖНО

RePack

MK11

RePack

jed

RePack

fifa19

RePack

RDR2

RePack

NEED FOR SPEED™ PAYBACK

Кинопоиск HD

6 сезон

 Острые козырьки 6 сезон

Все сериалы

все сериалы на PB.wtf

RePack

FAR CRY 5
  
Magnet ссылка

Томми / Tommy (Тарик Салех / Tarik Saleh) [2014, Швеция, триллер, HDTVRip, Любительский (одноголосый) pb.wtf

Томми через торрент pb.wtf

Размер: 1.36 GB | Добавлен: 8 лет 1 мес. назад | Торрент скачан:195 раз
Смотреть онлайн Томми | Скачать    Ребята, помогите собрать деньги на оплату серверов!!!

30-06-2014 16:47 Томми Скачать торрент  

Томми / Tommy
«When the queen returns, she sets the city on fire»

Год выпуска: 2014
Страна: Швеция
Жанр:триллер
Продолжительность:01:30:10
Перевод:Любительский (одноголосый) [ViruseProject]

Субтитры: Нет
Режиссер:Тарик Салех / Tarik Saleh

  • В ролях:

    Моа Гаммель (Estelle), Ликке Ли (Blanca), Ола Рапас (Bobby), Алексей Манвелов (Matte), Йохан Рабеус (Steve), Inez Buckner (Isabel), Эва Фрёлинг (Katarina), Ингела Ольссон (Marianne Löfgren), Александр Стокс (Peter Julahz), Azzan Jack (Cokie), Аманда Оомс (Lena), Махмут Сувакси (Chef)

  • Описание:
    Неделя до Рождества. Эстель приземляется в аэропорту Стокгольма «Арланда». Годом ранее, она подалась в бега вместе с мужем Томми и их дочерью после того, как Томми принял участие в одном из крупнейших ограблений за всю историю Швеции. Эстель ищет бывших подельников Томми, пытаясь уверить их, что тот скоро вернется за своей долей. Молва разносится по преступному миру Стокгольма. Если Томми приедет, город захлестнет волна насилия, а если не приедет, то может произойти вещи более страшные

  • Мировая премьера:1 февраля 2014


      Качество: HDTVRip
      Формат: AVI
      Видео кодек: XviD
      Аудио кодек:AC3
      Видео: XviD, 720x384 (1.875), 1958 kbps, 25 fps, 0,283 bpp
      Аудио: AC3 / 2.0 / 48 kHz / 192 kbps / 16 bit


    Код:

    General
    Complete name                            : D:\Торенты\Tommy.2014.L1.HDTVRip.1400Mb.avi
    Format                                   : AVI
    Format/Info                              : Audio Video Interleave
    File size                                : 1.36 GiB
    Duration                                 : 1h 30mn
    Overall bit rate                         : 2 160 Kbps
    Writing application                      : VirtualDubMod 1.5.10.3 | www.virtualdub-fr.org || (build 2550/release)
    Writing library                          : VirtualDubMod build 2550/release

    Video
    ID                                       : 0
    Format                                   : MPEG-4 Visual
    Format profile                           : Advanced [email protected]
    Format settings, BVOP                    : 1
    Format settings, QPel                    : No
    Format settings, GMC                     : No warppoints
    Format settings, Matrix                  : Default (MPEG)
    Muxing mode                              : Packed bitstream
    Codec ID                                 : XVID
    Codec ID/Hint                            : XviD
    Duration                                 : 1h 30mn
    Bit rate                                 : 1 958 Kbps
    Width                                    : 720 pixels
    Height                                   : 384 pixels
    Display aspect ratio                     : 1.875
    Frame rate                               : 25.000 fps
    Color space                              : YUV
    Chroma subsampling                       : 4:2:0
    Bit depth                                : 8 bits
    Scan type                                : Progressive
    Compression mode                         : Lossy
    Bits/(Pixel*Frame)                       : 0.283
    Stream size                              : 1.23 GiB (91%)
    Writing library                          : XviD 1.2.1 (UTC 2008-12-04)

    Audio
    ID                                       : 1
    Format                                   : AC-3
    Format/Info                              : Audio Coding 3
    Mode extension                           : CM (complete main)
    Codec ID                                 : 2000
    Duration                                 : 1h 30mn
    Bit rate mode                            : Constant
    Bit rate                                 : 192 Kbps
    Channel(s)                               : 2 channels
    Channel positions                        : Front: L R
    Sampling rate                            : 48.0 KHz
    Bit depth                                : 16 bits
    Compression mode                         : Lossy
    Stream size                              : 124 MiB (9%)
    Alignment                                : Split accross interleaves
    Interleave, duration                     : 40 ms (1.00 video frame)
    Interleave, preload duration             : 500 ms

    Скриншоты:

    Каталог Новинок (Фильмы-трейлеры, Игры, Сериалы, Мультфильмы)

    © Оформление by Raven
    pb.wtf



  • Скачать Томми через торрент http://i64.fastpic.ru/big/2014/0630/b3/3be099b02beacf3b8d19b2f93618eeb3.jpg Скачать, смотреть онлайн Томми бесплантно в хорошем качестве Описание:Неделя до Рождества. Эстель приземляется в аэропорту Стокгольма «Арланда». Годом ранее, она подалась в бега вместе с мужем Томми и ... 9.4 10 8
    Торрент: Зарегистрирован [2014-06-30 16:47] · скачан: 195 раз
    Статус: T временная
    Размер: 1.36 GB
    Как cкачать? Как скачать Томми через торрент | UTorrent

    % Раздел Тема Автор DL S | L
    Зарубежные сериалы [ 4.46 GB ] Пэм и Томми / Pam & Tommy / Сезон: 1 / Серии: 1-8 из 8 [2022 Биография драм WEB-DLRip] MVO [LostFilm] bober100 Скачать
    1 | 0
    Зарубежные сериалы [ 15.56 GB ] Томми / Tommy / Сезон: 1 / Серии: 1-9 из 12 [2020 WEB-DL 720p] MVO [TVShows] bober100 Скачать
    1 | 0
    Зарубежные сериалы [ 33.51 GB ] Томми / Tommy / Сезон: 1 / Серии: 1-9 из 12 [2020 WEB-DL 1080p] MVO [TVShows] bober100 Скачать
    1 | 0
    Фильмы с авторской озвучкой [ 2.07 GB ] Тайна 7 сестер / Seven Sisters [2017 BDRip] [AVO] killermax2013 Скачать
    1 | 0
    Фильмы [HD 720p, 1080p] (Хороший звук DUB, MVO) [ 14.86 GB ] Увалень Томми / Tommy Boy [1995 BDRip 1080p by msltel] 2 x MVO 2 x AVO msltel Скачать
    1 | 0
    Фильмы [HD 720p, 1080p] (Хороший звук DUB, MVO) [ 5.72 GB ] Увалень Томми / Tommy Boy [1995 BDRip 720p by msltel] 2 x MVO 2 x AVO msltel Скачать
    1 | 0
    T Релизы по Парсеру [Игры, Сериалы и Фильмы и другое...] [ 9.69 GB ] Металлопокалипсис / Metalocalypse / Сезон: 1-4 / Серии: 1-60 из 60 [2006-2012 Чёрная DVDRip-AVC] MVO + SUB Ворон Скачать
    1 | 1

    28-11-2019 20:33  

    Отключить вcю реклaмy на сайте

    12-07-2014 16:38 Томми Скачать торрент  

    кто сморел, отпишитесьpb.wtf



      Дорогой пользователь! Огромная просьба, поблагодарите релизера, оцените раздачу и оставьте свои комментарий, если Вы скачали Томми через торрент бесплатно!
      Комментировать посты могут только пользователи прошедшие не сложную регистрацию
      Показать сообщения:    

      Томми через торрент
      Скачать бесплатно Томми
      Томми скачать торрент
      Томми смотреть онлайн
      Cкачать фильм Томми бесплатно
      Томми скачать торрент в хорошем качестве
      Томми смотреть онлайн бесплатно в хорошем качестве


      Вы не можете начинать темы
      Вы не можете отвечать на сообщения
      Вы не можете редактировать свои сообщения
      Вы не можете удалять свои сообщения
      Вы не можете голосовать в опросах
      Вы не можете прикреплять файлы к сообщениям
      Вы можете скачивать файлы