Ссылка на приватное зеркало всего за 1$. Внимание количество ограничено!!!

iTunes

1+1

iTunes

мы

WEB-DL

1

iTunes

Чернобыль

iTunes

Ральф против интернета

Лицензия

ПШазам

Лицензия

Оно 2

Лицензия

30
pack

Вам бонус

ВАЖНО

!!Акция!!

Alien_RageХит недели

RePack

Resident Evil 21

ИГРА 18+

pack

RePack

jed

!!Акция!!

Alien_Rage

RePack

fifa19

RePack

Assassins Creed: Odyssey

RePack

NEED FOR SPEED™ PAYBACK

3 сезон

9 сезон

Бесстыжие 9 сезон

Все сериалы

все сериалы на PB.wtf

RePack

FAR CRY 5
Ребята, катастрофически не хватает 1900р. для оплаты серверов за Октябрь (всвязи с блокировками трафик упал в 3 раза), 1-2р., выручайте.
  

Оставленные / The Leftovers / Сезон: 1 / Серии 1-10 из 10 (Мими Ледер / Mimi Leder, Питер Берг / Peter Berg, Мишель Максвелл МакЛарен / Michelle Maxwell MacLaren) [ 2014 , США , фэнтези, драма, детектив , HDTVRip ] Mvo (Amedia) pb.wtf

Оставленные через торрент pb.wtf

Размер: 5.4 GB | Добавлен: 5 лет 3 мес. назад | Торрент скачан:436 раз
Скачать  

01-07-2014 03:39 Оставленные Скачать торрент  

Оставленные / The Leftovers«Grace period is over»
Год выпуска: 2014
Страна: США
Жанр: фэнтези, драма, детектив
Продолжительность: 01:11:42
Перевод: Профессиональный (многоголосый, закадровый)(Amedia)
Субтитры: Нет
Режиссер: Мими Ледер / Mimi Leder, Питер Берг / Peter Berg, Мишель Максвелл МакЛарен / Michelle Maxwell MacLaren
Сценарий: Кертис Гуинн / Curtis Gwinn, Жаклин Хойт / Jacqueline Hoyt, Дэймон Линделоф / Damon Lindelof, Кэт Лингенфельтер / Kath Lingenfelter, Том Перротта / Tom Perrotta
Продюсер: Дэймон Линделоф / Damon Lindelof, Нэн Л. Бернштейн / Nan Bernstein Freed, Джон Блэр / John Blair, Мими Ледер / Mimi Leder, Альберт Бергер / Albert Berger
Оператор: Тодд МакКаллен / Todd McMullen, Майкл Грэйди / Michael Grady
Композитор: Макс Рихтер / Max Richter
В ролях:
Фрэнк Хартс (Dennis Luckey), Майкл Гэстон (Dean), Джастин Теру (Kevin Garvey), Кэрри Кун (Nora Durst), Лив Тайлер (Meg Abbott), Маргарет Куэлли (Jill Garvey), Энни Цянь (Christine), Эми Бреннеман (Laurie Garvey), Кристофер Экклстон (Matt Jamison), Энн Дауд (Patti Levin), Аманда Уоррен (Lucy Warburton), Крис Зилка (Tom Garvey)
Мировая премьера: 29 июня 2014
Описание:
Разве может внезапно испариться сотня человек? Кажется фантастикой и каким-то безумием, но это факт. Более сотни жителей небольшого городка под названием Мейплтон неожиданно просто исчезают, оставляя всё своё имущество и вещи. Странно, загадочно и пугающе. Однако остатки населения городка должны продолжать жить дальше, хотя сделать это очень непросто. Кто знает, не постигнет ли такая же участь кого-то ещё и куда же всё-таки делись все эти люди. Пока полиция пытается дать хоть какие-то ответы на случившееся, остатки жителей постепенно приходят в себя, стараясь смириться с произошедшим, но забыть такое они точно не смогут.
Качество: HDTVRip
Формат: AVI
Видео кодек: XviD
Аудио кодек: AC3
Видео: 1142 Кбит/сек, 720*400 (16:9), в 23,976 кадра/сек, MPEG-4 Visual (XviD)
Аудио №1: Русский 192 Кбит/сек, 48,0 КГц, 16 бит, 2 канала, AC-3
Аудио №2: Английский 192 Кбит/сек, 48,0 КГц, 16 бит, 2 канала, AC-3
Раздача ведётся путём добавления новых серийДобавлена 10 серия (10.09.2014)Просьба перекачать торрент файл

Внимание! Раздача ведётся путём добавления новых ; при каждом добавлении создаётся новый торрент. Чтобы начать докачку новой , пользователям необходимо сделать следующее:
(1) остановить скачивание,
(2) удалить старый торрент у себя из клиента (старые удалять не надо),
(3) скачать новый торрент и запустить его у себя в клиенте вместо старого, при этом указать клиенту путь в старую папку куда и должно происходить скачивание новых .
Ваш клиент при этом должен произвести хеширование (проверку) старой (если не производит сам - помогите ему сделать это), и будет докачивать только те которых у вас ещё нет. Старые при этом не удаляются, а продолжают раздаваться!
Eсли вы уже удалили старые , то предотвратить повторную закачку старых можно, отжав галочку в соответсвующих местах при запуске торрента. По возможности, желательно не удалять старые как можно дольше чтобы релизёр не столько продолжал раздавать старые , а смог сконцентрироваться на новых.

Общее
Полное имя : D:\Фильмы\Оставленные(Сезон 1)2014\Ostavlenia.2014.P.HDTVRip.S1.E1.avi
Формат : AVI
Формат/Информация : Audio Video Interleave
Размер файла : 790 Мбайт
Продолжительность : 1 ч. 11 м.
Общий поток : 1540 Кбит/сек
Программа кодирования : VirtualDubMod 1.5.10.2 (build 2540/release)
Библиотека кодирования : VirtualDubMod build 2540/release

Видео
Идентификатор : 0
Формат : MPEG-4 Visual
Профиль формата : Advanced Simple@L5
Параметр BVOP формата : 2
Параметр QPel формата : Нет
Параметр GMC формата : Без точки перехода
Параметр матрицы формата : Default (H.263)
Идентификатор кодека : XVID
Идентификатор кодека/Подсказка : XviD
Продолжительность : 1 ч. 11 м.
Битрейт : 1142 Кбит/сек
Ширина : 720 пикселей
Высота : 400 пикселей
Соотношение сторон : 16:9
Частота кадров : 23,976 кадра/сек
Цветовое пространство : YUV
Субдискретизация насыщенности : 4:2:0
Битовая глубина : 8 бит
Тип развёртки : Прогрессивная
Метод сжатия : С потерями
Бит/(Пиксели*Кадры) : 0.165
Размер потока : 586 Мбайт (74%)
Библиотека кодирования : XviD 1.2.1 (UTC 2008-12-04)

Аудио #1
Идентификатор : 1
Формат : AC-3
Формат/Информация : Audio Coding 3
Расширение режима : CM (complete main)
Параметр Endianness формата : Big
Идентификатор кодека : 2000
Продолжительность : 1 ч. 11 м.
Вид битрейта : Постоянный
Битрейт : 192 Кбит/сек
Каналы : 2 канала
Расположение каналов : Front: L R
Частота : 48,0 КГц
Битовая глубина : 16 бит
Метод сжатия : С потерями
Размер потока : 98,5 Мбайт (12%)
Выравнивание : Разделение по промежуткам
Продолжительность промежутка : 42 мс. (1,00 видеокадр)
Время предзагрузки промежутка : 500 мс.

Аудио #2
Идентификатор : 2
Формат : AC-3
Формат/Информация : Audio Coding 3
Расширение режима : CM (complete main)
Параметр Endianness формата : Big
Идентификатор кодека : 2000
Продолжительность : 1 ч. 11 м.
Вид битрейта : Постоянный
Битрейт : 192 Кбит/сек
Каналы : 2 канала
Расположение каналов : Front: L R
Частота : 48,0 КГц
Битовая глубина : 16 бит
Метод сжатия : С потерями
Размер потока : 98,5 Мбайт (12%)
Выравнивание : Разделение по промежуткам
Продолжительность промежутка : 42 мс. (1,00 видеокадр)
Время предзагрузки промежутка : 500 мс.

скриншот   скриншот   скриншот   скриншот   скриншот   скриншот  
pb.wtf



Скачать Оставленные через торрент http://pic.kartinco.top/new/img/2014-07/01/6qvyhkcoc90w6o620lb8308tw.png Скачать фильм Оставленные через торрент бесплантно в хорошем качестве Описание:Разве может внезапно испариться сотня человек? Кажется фантастикой и каким-то безумием, но это факт. Более сотни жителей ... 10 10 12
Info! Золотая раздача, скачанное не засчитывается.
Торрент: Зарегистрирован [2014-09-10 05:51] · скачан: 436 раз
Статус: √ проверено
Размер: 5.4 GB
Как cкачать? Как скачать Оставленные через торрент | qTorrent

% Раздел Тема Автор DL S | L
Зарубежные сериалы [ 12.54 GB ] Оставленные / Остатки / The Leftovers / Сезон: 2 / Серии 1-10 из 10 [2015 HDTVRip-AVC] MVO [NewStudio] GEKADOL Скачать
1 | 0
Зарубежные сериалы [ 6.93 GB ] Оставленные / Остатки / The Leftovers / Сезон: 1 / Серии 1-10 из 10 [ 2014 HDTVRip ] DVO GEKADOL Скачать
1 | 0
Зарубежные сериалы [ 56.03 GB ] Оставленные / The Leftovers / Сезон: 3 / Серии: 1-8 из 8 [2017 WEBRip 1080p] MVO [Amedia] bober100 Скачать
1 | 0
Зарубежные сериалы [ 29.07 GB ] Оставленные / The Leftovers / Сезон: 1 / Серии: 1-10 из 10 [2014 HDTVRip 720p] MVO [Амедиа] + DVO [NewStudio] + Original + Rus Sub от R.G. PiratFilms Messa-fan Скачать
1 | 0
Зарубежные сериалы [ 23.46 GB ] Оставленные / Остатки / The Leftovers / Сезон: 2 / Серии 1-10 из 10 [2015 HDTVRip 1080p / Amedia] Ворон Скачать
1 | 0


Последний раз редактировалось: GEKADOL (2014-09-10 05:51), всего редактировалось 4 раз(а)

28-11-2019 20:33  

Отключить всю рекламу на сайте

01-07-2014 08:53 Оставленные Скачать торрент  

чо по HD?)pb.wtf



01-07-2014 08:59 Оставленные Скачать торрент  

ZohanTvir писал(а):

чо по HD?)

Сделаю если нужно) pb.wtf



01-07-2014 09:27 Оставленные Скачать торрент  

ZohanTvir, GEKADOL, HDTVRip 720p от нашей группы и от меня к пяти вечера по МСК

Код:

Видео
Идентификатор                            : 1
Формат                                   : AVC
Формат/Информация                        : Advanced Video Codec
Профиль формата                          : High@L4.1
Параметр CABAC формата                   : Да
Параметр ReFrames формата                : 6 кадров
Идентификатор кодека                     : V_MPEG4/ISO/AVC
Битрейт                                  : 8758 Кбит/сек
Ширина                                   : 1280 пикселей
Высота                                   : 714 пикселей
Соотношение сторон                       : 16:9
Режим частоты кадров                     : Переменный
Частота кадров в оригинале               : 23,976 кадра/сек
Цветовое пространство                    : YUV
Субдискретизация насыщенности            : 4:2:0
Битовая глубина                          : 8 бит
Тип развёртки                            : Прогрессивная
Бит/(Пиксели*Кадры)                      : 0.400
Библиотека кодирования                   : x264 core 142 r2431kMod ac76440
Настройки программы                      : cabac=1 / ref=6 / deblock=1:-3:-3 / analyse=0x3:0x113 / me=umh / subme=10 / psy=1 / fade_compensate=0.00 / psy_rd=1.05:0.05 / mixed_ref=1 / me_range=32 / chroma_me=1 / trellis=2 / 8x8dct=1 / cqm=0 / deadzone=21,11 / fast_pskip=0 / chroma_qp_offset=-5 / threads=6 / lookahead_threads=1 / sliced_threads=0 / nr=0 / decimate=1 / interlaced=0 / bluray_compat=0 / constrained_intra=0 / fgo=0 / bframes=10 / b_pyramid=2 / b_adapt=2 / b_bias=0 / direct=3 / weightb=1 / open_gop=0 / weightp=1 / keyint=240 / keyint_min=23 / scenecut=40 / intra_refresh=0 / rc_lookahead=60 / rc=2pass / mbtree=1 / bitrate=8758 / ratetol=1.0 / qcomp=0.80 / qpmin=0 / qpmax=69 / qpstep=4 / cplxblur=20.0 / qblur=0.5 / vbv_maxrate=50000 / vbv_bufsize=62500 / nal_hrd=none / filler=0 / ip_ratio=1.35 / aq=1:0.90
Язык                                     : English
Default                                  : Да
Forced                                   : Нет

Аудио #1
Формат                                   : AC-3
Формат/Информация                        : Audio Coding 3
Расширение режима                        : CM (complete main)
Параметр Endianness формата              : Big
Продолжительность                        : 1 ч. 13 м.
Вид битрейта                             : Постоянный
Битрейт                                  : 384 Кбит/сек
Каналы                                   : 6 каналов
Расположение каналов                     : Front: L C R, Side: L R, LFE
Частота                                  : 48,0 КГц
Битовая глубина                          : 16 бит
Метод сжатия                             : С потерями
Размер потока                            : 201 Мбайт (100%)

Аудио #2
Формат                                   : AC-3
Формат/Информация                        : Audio Coding 3
Расширение режима                        : CM (complete main)
Параметр Endianness формата              : Big
Продолжительность                        : 1 ч. 13 м.
Вид битрейта                             : Постоянный
Битрейт                                  : 384 Кбит/сек
Каналы                                   : 6 каналов
Расположение каналов                     : Front: L C R, Side: L R, LFE
Частота                                  : 48,0 КГц
Битовая глубина                          : 16 бит
Метод сжатия                             : С потерями
Размер потока                            : 201 Мбайт (100%)

Других нормальных рипов ещё нет, одна сцена.pb.wtf



27-01-2015 19:20 Оставленные Скачать торрент  

Сериал просто супер!!!!!!!!! Смотреть всем!!!!!! Ждём 2-ой сезон!!!!!
Озвучка "А-медиа" - на высоте!!!
Смотрите - и не пожалеете!!!


самый лучший и качественный на мой взгляд рип - Оставленные / The Leftovers / Сезон: 1 / Серии: 1-10 из 10 pb.wtf



    Дорогой пользователь! Огромная просьба, поблагодарите релизера, оцените раздачу и оставьте свои комментарий, если Вы скачали Оставленные через торрент бесплатно! Внесите свою лепту в развитие PiratBit!
    Комментировать посты могут только пользователи прошедшие не сложную регистрацию
    Показать сообщения:    

    Оставленные через торрент
    Скачать бесплатно Оставленные
    Оставленные скачать торрент
    Оставленные смотреть онлайн
    Cкачать фильм Оставленные бесплатно
    Оставленные скачать торрент в хорошем качестве
    Оставленные смотреть онлайн бесплатно в хорошем качестве


    Вы не можете начинать темы
    Вы не можете отвечать на сообщения
    Вы не можете редактировать свои сообщения
    Вы не можете удалять свои сообщения
    Вы не можете голосовать в опросах
    Вы не можете прикреплять файлы к сообщениям
    Вы можете скачивать файлы