Ссылка на приватное зеркало нашего сайта всего за 1$. Внимание количество ограничено!!!

2 сезон

iTunes

1 сезон

1

iTunes

iTunes

iTunes

1 сезон

RePack

30

ИГРА 18+

pack

ВАЖНО

!!Акция!!

Alien_RageХит недели

RePack

MK11
pack

Забери бонус

RePack

jed

!!Акция!!

Alien_Rage

RePack

fifa19

RePack

Assassins Creed: Odyssey

RePack

NEED FOR SPEED™ PAYBACK

4 сезон

9 сезон

Бесстыжие 9 сезон

Все сериалы

все сериалы на PB.wtf

RePack

FAR CRY 5
  

Синистер / Sinister (Скотт Дерриксон) [2012 г., ужасы, триллер, детектив, BDRip 720p, DUB, лицензия] pb.wtf

Скачать  

27-01-2013 08:31 Синистер Скачать торрент  

Синистер / Sinister

Год выпуска: 2012
Страна: США
Жанр: ужасы, триллер, детектив
Продолжительность: 01:49:45
Перевод: Дубляж, Лицензия

Режиссер: Скотт Дерриксон
Продюссер: Джейсон Блум
Сценарий: Скотт Дерриксон, С. Роберт Каргилл

Бюджет: $3 000 000
Премьера в мире: 11 марта 2012

возраст 18+ зрителям, достигшим 18 лет
http://www.imdb.com/title/tt1922777/


В ролях: Итан Хоук, Джульет Райлэнс, Фред Долтон Томпсон, Джеймс Рэнсон, Майкл Холл Д’Аддарио, Клер Фоли, Роб Райли, Тэвис Смайли, Джанет Заппала, Виктория Ли

Описание: Вместе с семьей автор детективов поселяется в небольшом городке, в доме, где почти год назад развернулась леденящая душу трагедия — были убиты все жильцы. Писатель случайно находит видеозаписи, которые являются ключом к тайне преступления. Но ничто не дается даром: в доме начинают происходить жуткие вещи и теперь под угрозой жизнь его близких. Они столкнулись с чем-то, от чего нет спасения…

Качество: BDRip 720p
Формат: MKV
Видео кодек: H.264
Аудио кодек: AC3
Видео: 1280 x 536 (2.388) at 23.976 fps AVC at 4932 Кбит/сек
Аудио#1: AC-3 at 448 Кбит/сек 6 каналов, 48,0 КГц | Дубляж
Аудио#2: DTS at 755 Кбит/сек 6 каналов, 48,0 КГц | Engl
Субтитры: English
Релиз от:




Общее
Уникальный идентификатор : 223055163445553718454393394679033308196 (0xA7CEDCA265E8D4F899A4335E65672424)
Полное имя : D:ФильмыSinister.2012.P.BDRip.720p.mkv
Формат : Matroska
Версия формата : Version 1
Размер файла : 4,72 Гбайт
Продолжительность : 1 ч. 49 м.
Общий поток : 6151 Кбит/сек
Дата кодирования : UTC 2013-01-26 22:25:30
Программа кодирования : mkvmerge v2.4.0 ('Fumbling Towards Ecstasy') built on Oct 11 2008 20:13:15
Библиотека кодирования : libebml v0.7.7 + libmatroska v0.8.1

Видео
Идентификатор : 1
Формат : AVC
Формат/Информация : Advanced Video Codec
Профиль формата : High@L4.1
Параметр CABAC формата : Да
Параметр ReFrames формата : 5 кадров
Идентификатор кодека : V_MPEG4/ISO/AVC
Продолжительность : 1 ч. 49 м.
Битрейт : 4932 Кбит/сек
Ширина : 1280 пикселей
Высота : 536 пикселей
Соотношение сторон : 2,40:1
Частота кадров : 23,976 кадра/сек
Цветовое пространство : YUV
Субдискретизация насыщенности : 4:2:0
Битовая глубина : 8 бит
Тип развёртки : Прогрессивная
Бит/(Пиксели*Кадры) : 0.300
Размер потока : 3,70 Гбайт (78%)
Заголовок : 03nazar03
Библиотека кодирования : x264 core 129 r2245 bc13772
Настройки программы : cabac=1 / ref=5 / deblock=1:0:0 / analyse=0x3:0x113 / me=umh / subme=8 / psy=1 / psy_rd=1.00:0.00 / mixed_ref=1 / me_range=16 / chroma_me=1 / trellis=1 / 8x8dct=1 / cqm=0 / deadzone=21,11 / fast_pskip=1 / chroma_qp_offset=-2 / threads=12 / lookahead_threads=2 / sliced_threads=0 / nr=0 / decimate=1 / interlaced=0 / bluray_compat=0 / constrained_intra=0 / bframes=3 / b_pyramid=2 / b_adapt=2 / b_bias=0 / direct=3 / weightb=1 / open_gop=0 / weightp=2 / keyint=240 / keyint_min=24 / scenecut=40 / intra_refresh=0 / rc_lookahead=50 / rc=2pass / mbtree=1 / bitrate=4932 / ratetol=1.0 / qcomp=0.60 / qpmin=0 / qpmax=69 / qpstep=4 / cplxblur=20.0 / qblur=0.5 / ip_ratio=1.40 / aq=1:1.00
Язык : English
Default : Да
Forced : Нет

Аудио #1
Идентификатор : 2
Формат : AC-3
Формат/Информация : Audio Coding 3
Расширение режима : CM (complete main)
Идентификатор кодека : A_AC3
Продолжительность : 1 ч. 49 м.
Вид битрейта : Постоянный
Битрейт : 448 Кбит/сек
Каналы : 6 каналов
Расположение каналов : Front: L C R, Side: L R, LFE
Частота : 48,0 КГц
Битовая глубина : 16 бит
Метод сжатия : С потерями
Задержка видео : 8 с. 0 мс.
Размер потока : 352 Мбайт (7%)
Язык : Russian
Default : Да
Forced : Нет

Аудио #2
Идентификатор : 3
Формат : DTS
Формат/Информация : Digital Theater Systems
Идентификатор кодека : A_DTS
Продолжительность : 1 ч. 49 м.
Вид битрейта : Постоянный
Битрейт : 755 Кбит/сек
Каналы : 6 каналов
Расположение каналов : Front: L C R, Side: L R, LFE
Частота : 48,0 КГц
Битовая глубина : 24 бит
Метод сжатия : С потерями
Задержка видео : 11 мс.
Размер потока : 592 Мбайт (12%)
Язык : English
Default : Нет
Forced : Нет

Текст
Идентификатор : 4
Формат : UTF-8
Идентификатор кодека : S_TEXT/UTF8
Идентификатор кодека/Информация : UTF-8 Plain Text
Язык : English
Default : Нет
Forced : Нет

Меню
00:00:00.000 : en:00:00:00.000
00:10:47.605 : en:00:10:47.605
00:19:12.360 : en:00:19:12.360
00:27:15.217 : en:00:27:15.217
00:37:05.557 : en:00:37:05.557
00:46:42.383 : en:00:46:42.383
00:56:37.144 : en:00:56:37.144
01:07:20.411 : en:01:07:20.411
01:17:10.751 : en:01:17:10.751
01:26:22.803 : en:01:26:22.803
01:33:41.616 : en:01:33:41.616
01:43:15.147 : en:01:43:15.147


Синистер скачать торрент


pb.wtf



Торрент не зареган: Не зарегистрирован ||
Добавлен: 2014-07-01 14:57
Скачано: 609 раз
% Раздел Тема Автор DL S | L
Фильмы (Blu-ray, BD-Remux, HDDVD) [ 31.01 GB ] Синистер 2 / Sinister 2 [2015 Blu-ray RUS 1080p] [Rus Transfer] DUB [] bober100 Скачать
2 | 0
Фильмы 2015 [DVDrip, WEB-DLRip, HDrip] [ 1.46 GB ] Синистер 2 / Sinister 2 [2015 BDRip] - [] Twi7ter Скачать
2 | 0
Фильмы 2015 [DVDrip, WEB-DLRip, HDrip] [ 1.46 GB ] Синистер 2 / Sinister 2 [2015 BDRip] [Rus Transfer] DUB [] bober100 Скачать
1 | 0
Фильмы (Blu-ray, BD-Remux, HDDVD) [ 36.75 GB ] Синистер / Sinister [2012 Blu-Ray 1080p] [Rus Transfer] [] sheker187 Скачать
2 | 0
Фильмы [HD 720p, 1080p] (Хороший звук DUB, MVO) [ 9.39 GB ] Синистер / Sinister [2012 BDRip 1080p DUB + Оригинал+Sub eng rus] Trava-HD Скачать
1 | 2
T Фильмы (Blu-ray, BD-Remux, HDDVD) [ 12.37 GB ] Синистер 2 / Sinister 2 [2015 ] - [Чистый звук] Blu-ray Remux [1080p] DINO-UFO Скачать
1 | 1
Фильмы 2015 [DVDrip, WEB-DLRip, HDrip] [ 1.42 GB ] Синистер 2 / Sinister 2 [2015 BDRip ] Twi7ter Скачать
1 | 0

28-11-2019 20:33  

Отключить всю рекламу на сайте

27-01-2013 08:49 Синистер Скачать торрент  

Что за хрень в шапке пишу название

Цитата:

Синистёр / Sinister

а вылазит какой то Писатель это как получается и после исправления ничего не выходит. Неужели релиз запрещен.pb.wtf



27-01-2013 10:49 Синистер Скачать торрент  

Название фильма не совпадает с названием темы тут прочитай, все вопросы отпадутpb.wtf



27-01-2013 19:42 Синистер Скачать торрент  

Scht1el писал(а):

http://pb.wtf/topic/81762/ тут прочитай, все вопросы отпадут

Спасибо за пояснение. pb.wtf



    Дорогой пользователь! Огромная просьба, поблагодарите релизера, оцените раздачу и оставьте свои комментарий, если Вы скачали Синистер через торрент бесплатно! Внесите свою лепту в развитие PiratBit!
    Комментировать посты могут только пользователи прошедшие не сложную регистрацию
    Показать сообщения:    

    Синистер через торрент
    Скачать бесплатно Синистер
    Синистер скачать торрент
    Синистер смотреть онлайн
    Cкачать фильм Синистер бесплатно
    Синистер скачать торрент в хорошем качестве
    Синистер смотреть онлайн бесплатно в хорошем качестве


    Вы не можете начинать темы
    Вы не можете отвечать на сообщения
    Вы не можете редактировать свои сообщения
    Вы не можете удалять свои сообщения
    Вы не можете голосовать в опросах
    Вы не можете прикреплять файлы к сообщениям
    Вы можете скачивать файлы