Ссылка на приватное зеркало нашего сайта всего за 1$. Внимание количество ограничено!!!

2 сезон

iTunes

1 сезон

1

iTunes

iTunes

iTunes

1 сезон

RePack

30

ИГРА 18+

pack

ВАЖНО

!!Акция!!

Alien_RageХит недели

RePack

MK11
pack

Забери бонус

RePack

jed

!!Акция!!

Alien_Rage

RePack

fifa19

RePack

Assassins Creed: Odyssey

RePack

NEED FOR SPEED™ PAYBACK

4 сезон

9 сезон

Бесстыжие 9 сезон

Все сериалы

все сериалы на PB.wtf

RePack

FAR CRY 5
  

Ледяная комета 3D / Bing Fung: Chung Sang Chi Mun (Винг-Чеонг Лау / Wing-cheong Law) [2014, Китай, Гонконг, фантастика, боевик, комедия, BDRip 720p, Любительский (двухголосый) pb.wtf

Ледяная комета 3D через торрент pb.wtf

Размер: 5.15 GB | Добавлен: 6 лет 3 мес. назад | Торрент скачан:253 раза
Скачать  

01-07-2014 17:54 Ледяная комета 3D Скачать торрент  

Ледяная комета 3D / Bing Fung: Chung Sang Chi Mun


Год выпуска: 2014
Страна: Китай, Гонконг
Жанр:фантастика, боевик, комедия, история
Продолжительность:01:44:13
Перевод:Любительский (двухголосый)Франк Цветков и Елена Егорова

Режиссер:Винг-Чеонг Лау / Wing-cheong Law

  • В ролях:

    Донни Ен (He Ying), Ван Баоцян (Sao), Ева Хуан (Xiao Mei), Юй Кан (Niehu), Саймон Ям, Хой-Панг Ло, Сует Лам, Сингх Хартихан Битто, Хо-Ман Чан, Сиу Ва Чан (Police officer), Жаклин Чонг, Эндрю Даш

  • Описание:
    Капитана императорской гвардии времён династии Мин ошибочно обвиняют в убийстве и в сговоре с врагом, его бывшие товарищи гвардейцы отправляются за ним в погоню. Но их битва заканчивается тем, что все трое оказываются погребёнными на 300 лет под снегом сошедшей лавины.
    Замороженных солдат, найденных филантропом-богачом, отправляют обратно в Гонконг для изучения, но те оттаивают и сбегают.
    В ночь на Хэллоуин беглец находит убежище у выпившей и эмоционально истощённой барменши, и постепенно она помогает ему влиться в общество 21-го века.
    Тем временем, у остальных гвардейцев свои планы: один до сих пор хочет выследить беглеца и придать его правосудию, а другой решает заработать себе имя в современном Гонконге.

  • Мировая премьера:17 апреля 2014


      Качество:BDRip 720p
      Формат: MKV
      Видео кодек: AVC
      Аудио кодек:AC3
      Видео: AVC, 1280x576 (2.222), 5599 kbps, 23,976 fps, 0,317 bpp
      Аудио №1: русский / AC3 / 2.0 / 48 kHz / 192 kbps / 16 bit ||
      Аудио №2: китайский / AC3 / 5.1 / 48 kHz / 640 kbps / 16 bit
      Аудио №3: китайский / AC3 / 5.1 / 48 kHz / 640 kbps / 16 bit


    Код:

    General
    Unique ID                                : 232788513379851603469933495072131793297 (0xAF216FD63CF653FF95D5B0D376124191)
    Complete name                            : D:\Торенты\The.Iceman.2014.BluRay.720p.mkv
    Format                                   : Matroska
    Format version                           : Version 2
    File size                                : 5.15 GiB
    Duration                                 : 1h 44mn
    Overall bit rate                         : 7 073 Kbps
    Movie name                               : The.Iceman.2014.BluRay.720p.AC3.2Audio.x264-CHD
    Encoded date                             : UTC 2014-06-30 08:19:34
    Writing application                      : mkvmerge v4.0.0 ('The Stars were mine') сборка от Jun 11 2010 23:24:27
    Writing library                          : libebml v1.0.0 + libmatroska v1.0.0

    Video
    ID                                       : 1
    Format                                   : AVC
    Format/Info                              : Advanced Video Codec
    Format profile                           : High@L4.1
    Format settings, CABAC                   : Yes
    Format settings, ReFrames                : 11 frames
    Codec ID                                 : V_MPEG4/ISO/AVC
    Duration                                 : 1h 44mn
    Bit rate                                 : 5 599 Kbps
    Width                                    : 1 280 pixels
    Height                                   : 576 pixels
    Display aspect ratio                     : 2.222
    Frame rate                               : 23.976 fps
    Color space                              : YUV
    Chroma subsampling                       : 4:2:0
    Bit depth                                : 8 bits
    Scan type                                : Progressive
    Bits/(Pixel*Frame)                       : 0.317
    Stream size                              : 3.97 GiB (77%)
    Title                                    : hahay0yo@CHD
    Writing library                          : x264 core 142 r2431 ac76440
    Encoding settings                        : cabac=1 / ref=11 / deblock=1:-3:-3 / analyse=0x3:0x113 / me=umh / subme=10 / psy=1 / psy_rd=1.00:0.05 / mixed_ref=1 / me_range=32 / chroma_me=1 / trellis=2 / 8x8dct=1 / cqm=0 / deadzone=21,11 / fast_pskip=0 / chroma_qp_offset=-2 / threads=18 / lookahead_threads=1 / sliced_threads=0 / nr=0 / decimate=1 / interlaced=0 / bluray_compat=0 / constrained_intra=0 / bframes=4 / b_pyramid=2 / b_adapt=2 / b_bias=0 / direct=3 / weightb=1 / open_gop=0 / weightp=2 / keyint=250 / keyint_min=23 / scenecut=40 / intra_refresh=0 / rc=2pass / mbtree=0 / bitrate=5599 / ratetol=1.0 / qcomp=0.70 / qpmin=0 / qpmax=69 / qpstep=4 / cplxblur=20.0 / qblur=0.5 / ip_ratio=1.40 / pb_ratio=1.30 / aq=2:0.90
    Language                                 : Chinese
    Default                                  : Yes
    Forced                                   : No

    Audio #1
    ID                                       : 2
    Format                                   : AC-3
    Format/Info                              : Audio Coding 3
    Mode extension                           : CM (complete main)
    Codec ID                                 : A_AC3
    Duration                                 : 1h 44mn
    Bit rate mode                            : Constant
    Bit rate                                 : 192 Kbps
    Channel(s)                               : 2 channels
    Channel positions                        : Front: L R
    Sampling rate                            : 48.0 KHz
    Bit depth                                : 16 bits
    Compression mode                         : Lossy
    Stream size                              : 143 MiB (3%)
    Title                                    : green-tea
    Language                                 : Russian
    Default                                  : Yes
    Forced                                   : Yes

    Audio #2
    ID                                       : 3
    Format                                   : AC-3
    Format/Info                              : Audio Coding 3
    Mode extension                           : CM (complete main)
    Codec ID                                 : A_AC3
    Duration                                 : 1h 44mn
    Bit rate mode                            : Constant
    Bit rate                                 : 640 Kbps
    Channel(s)                               : 6 channels
    Channel positions                        : Front: L C R, Side: L R, LFE
    Sampling rate                            : 48.0 KHz
    Bit depth                                : 16 bits
    Compression mode                         : Lossy
    Stream size                              : 477 MiB (9%)
    Title                                    : Mandarin AC3 5.1 640Kbps
    Language                                 : Chinese
    Default                                  : No
    Forced                                   : Yes

    Audio #3
    ID                                       : 4
    Format                                   : AC-3
    Format/Info                              : Audio Coding 3
    Mode extension                           : CM (complete main)
    Codec ID                                 : A_AC3
    Duration                                 : 1h 44mn
    Bit rate mode                            : Constant
    Bit rate                                 : 640 Kbps
    Channel(s)                               : 6 channels
    Channel positions                        : Front: L C R, Side: L R, LFE
    Sampling rate                            : 48.0 KHz
    Bit depth                                : 16 bits
    Compression mode                         : Lossy
    Stream size                              : 477 MiB (9%)
    Title                                    : Cantonese AC3 5.1 640Kbps
    Language                                 : Chinese
    Default                                  : No
    Forced                                   : Yes

    Скриншоты:

    Каталог Новинок (Фильмы-трейлеры, Игры, Сериалы, Мультфильмы)
    pb.wtf



  • Скачать Ледяная комета 3D через торрент http://i61.fastpic.ru/big/2014/0701/c3/dfabb4d7fbd67bc0a8a4d7f82e331cc3.jpg Скачать фильм Ледяная комета 3D через торрент бесплантно в хорошем качестве Описание:Капитана императорской гвардии времён династии Мин ошибочно обвиняют в убийстве и в сговоре с врагом, его бывшие товарищи ... 9.5 10 15
    Торрент: Зарегистрирован [2014-07-01 17:54] · скачан: 253 раз
    Статус: √ проверено
    Размер: 5.15 GB
    Как cкачать? Как скачать Ледяная комета 3D через торрент | qTorrent

    % Раздел Тема Автор DL S | L
    Азиатские фильмы [ 1.37 GB ] Ледяная комета 3D / Bing Fung: Chung Sang Chi Mun [2014 Китай Гонконг HDRip Любительский Ворон Скачать
    1 | 0

    28-11-2019 20:33  

    Отключить всю рекламу на сайте

    02-07-2014 15:56 Ледяная комета 3D Скачать торрент  

    причём здесь комета да ещё в3д :druncp: а так киношка неплохая :padonak:pb.wtf



    07-07-2014 09:56 Ледяная комета 3D Скачать торрент  

    [img=left]vitya_5@bk.ru[/img] pb.wtf



    08-07-2014 12:48 Ледяная комета 3D Скачать торрент  

    скорее не ледяная комета-а типа замороженныйpb.wtf



      Дорогой пользователь! Огромная просьба, поблагодарите релизера, оцените раздачу и оставьте свои комментарий, если Вы скачали Ледяная комета 3D через торрент бесплатно! Внесите свою лепту в развитие PiratBit!
      Комментировать посты могут только пользователи прошедшие не сложную регистрацию
      Показать сообщения:    

      Ледяная комета 3D через торрент
      Скачать бесплатно Ледяная комета 3D
      Ледяная комета 3D скачать торрент
      Ледяная комета 3D смотреть онлайн
      Cкачать фильм Ледяная комета 3D бесплатно
      Ледяная комета 3D скачать торрент в хорошем качестве
      Ледяная комета 3D смотреть онлайн бесплатно в хорошем качестве


      Вы не можете начинать темы
      Вы не можете отвечать на сообщения
      Вы не можете редактировать свои сообщения
      Вы не можете удалять свои сообщения
      Вы не можете голосовать в опросах
      Вы не можете прикреплять файлы к сообщениям
      Вы можете скачивать файлы