Ссылка на приватное зеркало всего за 1$. Внимание количество ограничено!!!

OK

1+1

iTunes

мы

OK

1

WEB-DLRip

Джокер

Пифагор

Ведьмак / The Witcher сериал

iTunes

ПШазам

ОК

Оно 2

iTunes

30
pack

Вам бонус

ВАЖНО

!!Акция!!

Alien_RageХит недели

RePack

Resident Evil 21

ИГРА 18+

pack

RePack

jed

RePack

fifa19

RePack

Assassins Creed: Odyssey

RePack

NEED FOR SPEED™ PAYBACK

4 сезон

9 сезон

Бесстыжие 9 сезон

Все сериалы

все сериалы на PB.wtf

RePack

FAR CRY 5
  

Счастливый шанс / Сезон: 1 / Серии 1-4 из 4 (Глеб Якубовский) [2014 г., Мелодрама, SATRip] pb.wtf

Счастливый шанс через торрент pb.wtf

Размер: 2.01 GB | Добавлен: 5 лет 6 мес. назад | Торрент скачан:309 раз
Скачать  

02-07-2014 04:25 Счастливый шанс Скачать торрент  

Счастливый шанс
Год выпуска: 2014
Страна: Россия
Жанр: Мелодрама
Продолжительность: ~ 00:46:00 (Серия)

Режиссер: Глеб Якубовский

В ролях: Татьяна Казючиц, Сергей Марин, Татьяна Чердынцева, Олег Алмазов, Борис Хвошнянский

Описание: Не так уж редко людям выпадает счастливый шанс, а точнее сказать - очень редко. Только одни люди, не замечая его, проходят мимо, а другие пытаются поймать «удачу за хвост». Вот так и произошло с героями этого мини-сериала. Как они смогут использовать свой счастливый шанс?.......

Качество: SATRip
Формат: AVI
Видео кодек: XviD
Аудио кодек: MP3
Видео: 1444 Кбит/сек, 720*400 (16:9), в 25,000 кадров/сек, MPEG-4 Visual (XviD)
Аудио#1: 192 Кбит/сек, 48,0 КГц, 2 канала, MPEG Audio (MP3)
скриншот   скриншот   скриншот   скриншот   скриншот   скриншот   скриншот   скриншот   скриншот  

Общее
Полное имя : D:\Фильмы\Счастливый шанс (1-4 из 4_2014)\Счастливый шанс.(04.seriya).2014.XviD.SATRip).avi
Формат : AVI
Формат/Информация : Audio Video Interleave
Размер файла : 519 Мбайт
Продолжительность : 44 м.
Общий поток : 1646 Кбит/сек
Программа кодирования : VirtualDubMod 1.5.10.3 | www.virtualdub-fr.org || (build 2550/release)
Библиотека кодирования : VirtualDubMod build 2550/release

Видео
Идентификатор : 0
Формат : MPEG-4 Visual
Профиль формата : Advanced Simple@L5
Параметр BVOP формата : 1
Параметр QPel формата : Нет
Параметр GMC формата : Без точки перехода
Параметр матрицы формата : Default (MPEG)
Идентификатор кодека : XVID
Идентификатор кодека/Подсказка : XviD
Продолжительность : 44 м.
Битрейт : 1444 Кбит/сек
Ширина : 720 пикселей
Высота : 400 пикселей
Соотношение сторон : 16:9
Частота кадров : 25,000 кадров/сек
Цветовое пространство : YUV
Субдискретизация насыщенности : 4:2:0
Битовая глубина : 8 бит
Тип развёртки : Прогрессивная
Метод сжатия : С потерями
Бит/(Пиксели*Кадры) : 0.201
Размер потока : 456 Мбайт (88%)
Библиотека кодирования : XviD 1.2.1 (UTC 2008-12-04)

Аудио
Идентификатор : 1
Формат : MPEG Audio
Версия формата : Version 1
Профиль формата : Layer 3
Режим : Joint stereo
Расширение режима : MS Stereo
Идентификатор кодека : 55
Идентификатор кодека/Подсказка : MP3
Продолжительность : 44 м.
Вид битрейта : Постоянный
Битрейт : 192 Кбит/сек
Каналы : 2 канала
Частота : 48,0 КГц
Метод сжатия : С потерями
Размер потока : 60,6 Мбайт (12%)
Выравнивание : Соединение по промежуткам
Продолжительность промежутка : 40 мс. (1,00 видеокадр)
Время предзагрузки промежутка : 504 мс.
Библиотека кодирования : LAME3.99r
Настройки программы : -m j -V 4 -q 2 -lowpass 18.6 -b 192

pb.wtf



Скачать Счастливый шанс через торрент http://pic.kartinco.top/images/6/s5xab.jpg Скачать фильм Счастливый шанс через торрент бесплантно в хорошем качестве Описание: Не так уж редко людям выпадает счастливый шанс, а точнее сказать - очень редко. Только одни люди, не замечая его, проходят мимо, ... 8.4 10 8
Торрент: Зарегистрирован [2014-07-02 04:25] · скачан: 309 раз
Статус: √ проверено
Размер: 2.01 GB
Как cкачать? Как скачать Счастливый шанс через торрент | qTorrent

28-11-2019 20:33  

Отключить всю рекламу на сайте

    Дорогой пользователь! Огромная просьба, поблагодарите релизера, оцените раздачу и оставьте свои комментарий, если Вы скачали Счастливый шанс через торрент бесплатно! Внесите свою лепту в развитие PiratBit!
    Комментировать посты могут только пользователи прошедшие не сложную регистрацию
    Показать сообщения:    

    Счастливый шанс через торрент
    Скачать бесплатно Счастливый шанс
    Счастливый шанс скачать торрент
    Счастливый шанс смотреть онлайн
    Cкачать фильм Счастливый шанс бесплатно
    Счастливый шанс скачать торрент в хорошем качестве
    Счастливый шанс смотреть онлайн бесплатно в хорошем качестве


    Вы не можете начинать темы
    Вы не можете отвечать на сообщения
    Вы не можете редактировать свои сообщения
    Вы не можете удалять свои сообщения
    Вы не можете голосовать в опросах
    Вы не можете прикреплять файлы к сообщениям
    Вы можете скачивать файлы