Всегда рабочее зеркало без VPN и Proxy просто перед .vidak.icu напиши любое слово или цифру, Пример http://7k77.vidak.icu

Лицензия

MVO

1 сезон

1

1 сезон

iTunes

1 сезон

13

1 сезон

Deluxe

pack

Рекомендуем

Repack

30

ВАЖНО

RePack

MK11

RePack

jed

RePack

fifa19

RePack

RDR2

RePack

NEED FOR SPEED™ PAYBACK

Кинопоиск HD

6 сезон

 Острые козырьки 6 сезон

Все сериалы

все сериалы на PB.wtf

RePack

FAR CRY 5
  
Magnet ссылка

Появление / The Appearing (Дэрик Гейтс / Daric Gates) [ 2014 , США , ужасы, триллер, детектив , WEB-DLRip ] DVO [DeadSno & den904] pb.wtf

Появление через торрент pb.wtf

Размер: 1.36 GB | Добавлен: 8 лет 1 мес. назад | Торрент скачан:528 раз
Смотреть онлайн Появление | Скачать    Ребята, помогите собрать деньги на оплату серверов!!!

02-07-2014 05:46 Появление Скачать торрент  

Появление / The Appearing«Основан на реальных событиях»
Год выпуска: 2014
Страна: США
Жанр: ужасы, триллер, детектив
Продолжительность: 01:31:31
Перевод: Любительский (двухголосый)[DeadSno & den904]
Субтитры: Нет
Режиссер: Дэрик Гейтс / Daric Gates
Сценарий: Дэрик Гейтс / Daric Gates, Мэттью Дж. Райан / Matthew J. Ryan
Продюсер: Дэрик Гейтс / Daric Gates, Уилл Уоллес / Will Wallace, Джоди Мортара / Jody Mortara, Брент Киньонес / Brent Quinones, Крис Робертс / Chris Roberts
Оператор: Уайатт Д. Хаус / Wyatt D. House
Композитор: Дэвид Дас / David Das
В ролях:
Уилл Уоллес (Michael), Дин Кэйн (Dr. Shaw), Дон Суэйзи (Sheriff Hendricks), Куинтон Аарон (Kenneth), Эмили Брукс (Rachel), Вольфганг Бодисон (Father Callahan), Конрой Кантер (Dr. Farnell), Эбигейл Купер (Susie Dudley), Крис Дескинс (Margo Dudley), Том Калоччи (Wade Fleener), Пэйтон Вуд (Nathan), Меган МакГрегор (Morgan)
Мировая премьера: 25 марта 2014
Описание:
Детектив Майкл переезжает со своей женой Рэйчел, после её нервного срыва из-за внезапной смерти их маленькой дочери, из центра в небольшой и очень странный городок. Майкл устраивается на работу в офис шерифа, рассчитывая передохнуть от рабочей суеты в тихом месте. Однако, в первый день работы, его просят исследовать таинственное исчезновение девочки-подростка.
Рейтинг
MPAA: R - Лицам до 17 лет обязательно присутствие взрослого
Качество: WEB-DLRip
Формат: AVI
Видео кодек: XviD
Аудио кодек: AC3
Видео: 1737 Кбит/сек, 720*304 (2,35:1), в 23,976 кадра/сек, MPEG-4 Visual (XviD)
Аудио: 384 Кбит/сек, 48,0 КГц, 16 бит, 6 каналов, AC-3
Общее
Полное имя : D:\Фильмы\Появление2014 WEB-DLRip.avi
Формат : AVI
Формат/Информация : Audio Video Interleave
Размер файла : 1,36 Гбайт
Продолжительность : 1 ч. 31 м.
Общий поток : 2130 Кбит/сек
Программа кодирования : VirtualDubMod 1.5.10.3 | www.virtualdub-fr.org || (build 2550/release)
Библиотека кодирования : VirtualDubMod build 2550/release

Видео
Идентификатор : 0
Формат : MPEG-4 Visual
Профиль формата : Advanced [email protected]
Параметр BVOP формата : 1
Параметр QPel формата : Нет
Параметр GMC формата : Без точки перехода
Параметр матрицы формата : Выборочная
Идентификатор кодека : XVID
Идентификатор кодека/Подсказка : XviD
Продолжительность : 1 ч. 31 м.
Битрейт : 1737 Кбит/сек
Ширина : 720 пикселей
Высота : 304 пикселя
Соотношение сторон : 2,35:1
Частота кадров : 23,976 кадра/сек
Цветовое пространство : YUV
Субдискретизация насыщенности : 4:2:0
Битовая глубина : 8 бит
Тип развёртки : Прогрессивная
Метод сжатия : С потерями
Бит/(Пиксели*Кадры) : 0.331
Размер потока : 1,11 Гбайт (82%)
Библиотека кодирования : XviD 73

Аудио
Идентификатор : 1
Формат : AC-3
Формат/Информация : Audio Coding 3
Расширение режима : CM (complete main)
Параметр Endianness формата : Big
Идентификатор кодека : 2000
Продолжительность : 1 ч. 31 м.
Вид битрейта : Постоянный
Битрейт : 384 Кбит/сек
Каналы : 6 каналов
Расположение каналов : Front: L C R, Side: L R, LFE
Частота : 48,0 КГц
Битовая глубина : 16 бит
Метод сжатия : С потерями
Размер потока : 251 Мбайт (18%)
Выравнивание : Разделение по промежуткам
Продолжительность промежутка : 42 мс. (1,00 видеокадр)
Время предзагрузки промежутка : 500 мс.

скриншот   скриншот   скриншот   скриншот   скриншот   скриншот   скриншот   скриншот   скриншот   скриншот  

pb.wtf



Скачать Появление через торрент https://pic1.kartinco.top/images/61/5zjsz.jpg Скачать, смотреть онлайн Появление бесплантно в хорошем качестве Описание:Детектив Майкл переезжает со своей женой Рэйчел, после её нервного срыва из-за внезапной смерти их маленькой дочери, из центра в ... 9.7 10 21
Торрент: Зарегистрирован [2014-07-02 05:46] · скачан: 528 раз
Статус: T временная
Размер: 1.36 GB
Как cкачать? Как скачать Появление через торрент | UTorrent

28-11-2019 20:33  

Отключить вcю реклaмy на сайте

02-07-2014 08:00 Появление Скачать торрент  

IMDb: 3.10 (456) проходим мимо. всем спасибо, все свободны))pb.wtf



02-07-2014 10:32 Появление Скачать торрент  

tamburetko писал(а):

IMDb: 3.10 (456) проходим мимо. всем спасибо, все свободны))

Не надо вестись как стадо баранов на тупые цифры большинства!Скачай посмотри-сделай вывод!Или не качай вообще!Обленились совсем уже даже вывод про фильмы хотите чтобы за вас делали!
Хотя нет!Так и оставайся серой массой! pb.wtf



03-07-2014 09:03 Появление Скачать торрент  

RomanovStyle - согласен с тобой полностью! pb.wtf



03-07-2014 11:20 Появление Скачать торрент  

Если 500 человек говорят, что фильм - отстой, а двое предлагают им не верить, значит это тупой способ поднять скачку.
И не пишите "Фильм основан на реальных событиях" большими буквами, пишите мелкими. Обычно такие фильмы тоскливо смотреть. Пожалели денег автору нормальной книги - получи результат...pb.wtf



19-07-2014 19:05 Появление Скачать торрент  

Спасибо за фильм! Автору респект!!!pb.wtf



    Дорогой пользователь! Огромная просьба, поблагодарите релизера, оцените раздачу и оставьте свои комментарий, если Вы скачали Появление через торрент бесплатно!
    Комментировать посты могут только пользователи прошедшие не сложную регистрацию
    Показать сообщения:    

    Появление через торрент
    Скачать бесплатно Появление
    Появление скачать торрент
    Появление смотреть онлайн
    Cкачать фильм Появление бесплатно
    Появление скачать торрент в хорошем качестве
    Появление смотреть онлайн бесплатно в хорошем качестве


    Вы не можете начинать темы
    Вы не можете отвечать на сообщения
    Вы не можете редактировать свои сообщения
    Вы не можете удалять свои сообщения
    Вы не можете голосовать в опросах
    Вы не можете прикреплять файлы к сообщениям
    Вы можете скачивать файлы