Ссылка на приватное зеркало всего за 1$. Внимание количество ограничено!!!

OK

1+1

iTunes

мы

OK

1

WEB-DLRip

Джокер

Пифагор

Ведьмак / The Witcher сериал

iTunes

ПШазам

ОК

Оно 2

iTunes

30
pack

Вам бонус

ВАЖНО

!!Акция!!

Alien_RageХит недели

RePack

Resident Evil 21

ИГРА 18+

pack

RePack

jed

RePack

fifa19

RePack

Assassins Creed: Odyssey

RePack

NEED FOR SPEED™ PAYBACK

4 сезон

9 сезон

Бесстыжие 9 сезон

Все сериалы

все сериалы на PB.wtf

RePack

FAR CRY 5
  

Деффчонки / Сезон: 4 / Серии 1-25 из 25 (Сергей Корягин, Ольга Френкель, Нигина Сайфуллаева) [ 2014 , Россия , комедия , WEBDLRip -AVC] pb.wtf

Деффчонки через торрент pb.wtf

Размер: 14.79 GB | Добавлен: 5 лет 6 мес. назад | Торрент скачан:160 раз
Скачать  

02-07-2014 08:48 Деффчонки Скачать торрент  

Деффчонки«Всё, что ты хотел знать о девчонках, но боялся спросить»
Год выпуска: 2014
Страна: Россия
Жанр: комедия
Продолжительность: ~00:22:27 (Серия)
Перевод: Не требуется
Субтитры: Нет
Режиссер: Сергей Корягин, Ольга Френкель, Нигина Сайфуллаева
Сценарий: Ольга Френкель, Сергей Корягин, Вера Шер, Мария Миронова, Владислав Длянчев
Продюсер: Роман Петренко, Александр Дулерайн, Евгений Никишов, Сергей Корягин, Ольга Френкель
Оператор: Олег Кириченко, Денис Макаров
Композитор: Алексей Воробьев, Иван Лубенников
В ролях:
Галина Боб (Маша «Бобылыч» Бобылкина, официантка), Анастасия Денисова (Катя «Пална» Швиммер, секретарша), Полина Максимова (Ольга «Леля» Ржевская, красотка-содержанка), Таисия Вилкова (Василиса «Васька» Бобылкина, младшая сестра Маши), Родион Юрин (Игорь Михайлович, начальник Кати), Наталья Унгард (Галина Ивановна, бухгалтер), Александр Серов (Макс, коллега Кати), Алексей Воробьев (Сергей Звонарев, телезвезда), Тимур Боканча (Николай, сисадмин), Софья Урицкая (Зоя, официантка), Александр Касаткин (Яша, кавалер Васьки), Алексей Самсонов (бармен)
Описание:
Героини «Деффчонок» - четыре подруги: мечтательная неудачница Маша, ее 16-летняя сестра Василиса, очкастый офисный планктон Катя и профессиональная блондинка Леля. Каждая хочет от жизни своего: успешной карьеры, правильного замужества, вселенской популярности...
Способов стать счастливой миллион! Одна беда - в жизни все гораздо сложнее, чем в мечтах. Если ты попала на прослушивание к крутому продюсеру, это еще не значит, что тебя сделают звездой. Если заклеила депутата с Рублевки - далеко не факт, что он не слиняет от тебя в Лондон. Бурные ночи с поп-идолом еще не дают гарантии, что он захочет на тебе жениться. А когда ты влюбляешься в начальника, будь готова к тому, что он начнет играть твоими чувствами ради бизнеса.
Сложность еще и в том, что подруги снимают одну на всех квартиру. Ведь все они приехали из Саратова, и родственников в столице у них нет. Жить вчетвером в одном шалаше - вот настоящая беда, в которой познаются друзья. Или это счастье, а не беда вовсе? Ответ на этот и еще 999 вопросов предстоит найти нашим героиням.
Рейтинг
kinopoisk.ru: 4.834 (6877)
imdb.com: 5.00 (43)
Качество: WEBDLRip-AVC
Формат: MKV
Видео кодек: AVC
Аудио кодек: AC3
Видео: 3500 Кбит/сек, 1024*576 (16:9), в 25,000 кадров/сек, AVC
Аудио: 192 Кбит/сек, 48,0 КГц, 16 бит, 2 канала, AC-3 Раздача ведётся путём добавления новых серийДобавлена 25 заключительная серия (25.07.2014)Просьба перекачать торрент файл

Внимание! Раздача ведётся путём добавления новых ; при каждом добавлении создаётся новый торрент. Чтобы начать докачку новой , пользователям необходимо сделать следующее:
(1) остановить скачивание,
(2) удалить старый торрент у себя из клиента (старые удалять не надо),
(3) скачать новый торрент и запустить его у себя в клиенте вместо старого, при этом указать клиенту путь в старую папку куда и должно происходить скачивание новых .
Ваш клиент при этом должен произвести хеширование (проверку) старой (если не производит сам - помогите ему сделать это), и будет докачивать только те которых у вас ещё нет. Старые при этом не удаляются, а продолжают раздаваться!
Eсли вы уже удалили старые , то предотвратить повторную закачку старых можно, отжав галочку в соответсвующих местах при запуске торрента. По возможности, желательно не удалять старые как можно дольше чтобы релизёр не столько продолжал раздавать старые , а смог сконцентрироваться на новых.

Общее
Уникальный идентификатор : 243859418764074820696620486786987900079 (0xB7759D9D538CB37EB614A15D989CBCAF)
Полное имя : D:\Фильмы\Деффчонки.4.2014.WEB-DLRip.(AVC)\Deffchonki.4.(10.seriya).2014.WEB-DLRip.(AVC).mkv
Формат : Matroska
Версия формата : Version 2
Размер файла : 593 Мбайт
Продолжительность : 22 м.
Общий поток : 3693 Кбит/сек
Дата кодирования : UTC 2014-06-30 00:07:32
Программа кодирования : mkvmerge v6.1.0 ('Old Devil') built on Mar 4 2013 09:10:42
Библиотека кодирования : libebml v1.3.0 + libmatroska v1.4.0

Видео
Идентификатор : 1
Формат : AVC
Формат/Информация : Advanced Video Codec
Профиль формата : High@L4.1
Параметр CABAC формата : Да
Параметр ReFrames формата : 8 кадров
Идентификатор кодека : V_MPEG4/ISO/AVC
Продолжительность : 22 м.
Битрейт : 3500 Кбит/сек
Ширина : 1024 пикселя
Высота : 576 пикселей
Соотношение сторон : 16:9
Режим частоты кадров : Постоянный
Частота кадров : 25,000 кадров/сек
Цветовое пространство : YUV
Субдискретизация насыщенности : 4:2:0
Битовая глубина : 8 бит
Тип развёртки : Прогрессивная
Бит/(Пиксели*Кадры) : 0.237
Размер потока : 550 Мбайт (93%)
Библиотека кодирования : x264 core 130 r2273 b3065e6
Настройки программы : cabac=1 / ref=8 / deblock=1:-3:-3 / analyse=0x3:0x133 / me=umh / subme=11 / psy=1 / psy_rd=1.00:0.20 / mixed_ref=1 / me_range=32 / chroma_me=1 / trellis=2 / 8x8dct=1 / cqm=0 / deadzone=21,11 / fast_pskip=0 / chroma_qp_offset=-3 / threads=12 / lookahead_threads=3 / sliced_threads=0 / nr=0 / decimate=0 / interlaced=0 / bluray_compat=0 / constrained_intra=0 / bframes=12 / b_pyramid=2 / b_adapt=2 / b_bias=0 / direct=3 / weightb=1 / open_gop=0 / weightp=2 / keyint=250 / keyint_min=25 / scenecut=40 / intra_refresh=0 / rc=2pass / mbtree=0 / bitrate=3500 / ratetol=1.0 / qcomp=0.60 / qpmin=0 / qpmax=69 / qpstep=4 / cplxblur=20.0 / qblur=0.5 / ip_ratio=1.40 / pb_ratio=1.30 / aq=1:0.80
Default : Да
Forced : Нет

Аудио
Идентификатор : 2
Формат : AC-3
Формат/Информация : Audio Coding 3
Расширение режима : CM (complete main)
Параметр Endianness формата : Big
Идентификатор кодека : A_AC3
Продолжительность : 22 м.
Вид битрейта : Постоянный
Битрейт : 192 Кбит/сек
Каналы : 2 канала
Расположение каналов : Front: L R
Частота : 48,0 КГц
Битовая глубина : 16 бит
Метод сжатия : С потерями
Размер потока : 30,8 Мбайт (5%)Default : Да
Forced : Нет

скриншот   скриншот   скриншот   скриншот   скриншот   скриншот   скриншот   скриншот   скриншот   скриншот  
pb.wtf



Скачать Деффчонки через торрент http://pic.kartinco.top/new/img/2014-07/02/4df4hwgm93igdqbli3jgh37zg.png Скачать фильм Деффчонки через торрент бесплантно в хорошем качестве Описание:Героини «Деффчонок» - четыре подруги: мечтательная неудачница Маша, ее 16-летняя сестра Василиса, очкастый офисный планктон Катя и ... 8.6 10 32
Info! Золотая раздача, скачанное не засчитывается.
Торрент: Зарегистрирован [2014-07-25 01:40] · скачан: 160 раз
Статус: √ проверено
Размер: 14.79 GB
Как cкачать? Как скачать Деффчонки через торрент | qTorrent



Последний раз редактировалось: GEKADOL (2014-07-25 01:40), всего редактировалось 4 раз(а)

28-11-2019 20:33  

Отключить всю рекламу на сайте

    Дорогой пользователь! Огромная просьба, поблагодарите релизера, оцените раздачу и оставьте свои комментарий, если Вы скачали Деффчонки через торрент бесплатно! Внесите свою лепту в развитие PiratBit!
    Комментировать посты могут только пользователи прошедшие не сложную регистрацию
    Показать сообщения:    

    Деффчонки через торрент
    Скачать бесплатно Деффчонки
    Деффчонки скачать торрент
    Деффчонки смотреть онлайн
    Cкачать фильм Деффчонки бесплатно
    Деффчонки скачать торрент в хорошем качестве
    Деффчонки смотреть онлайн бесплатно в хорошем качестве


    Вы не можете начинать темы
    Вы не можете отвечать на сообщения
    Вы не можете редактировать свои сообщения
    Вы не можете удалять свои сообщения
    Вы не можете голосовать в опросах
    Вы не можете прикреплять файлы к сообщениям
    Вы можете скачивать файлы