Ссылка на приватное зеркало нашего сайта всего за 1$. Внимание количество ограничено!!!

2 сезон

iTunes

1 сезон

1

2 сезон

2 сезон

iTunes

1 сезон

RePack

30

Ultimate

ВАЖНО

ИГРА 18+

pack

RePack

MK11
pack

Забери бонус

RePack

jed

!!Акция!!

Alien_Rage

RePack

fifa19

RePack

Assassins Creed: Odyssey

RePack

NEED FOR SPEED™ PAYBACK

4 сезон

9 сезон

Бесстыжие 9 сезон

Все сериалы

все сериалы на PB.wtf

RePack

FAR CRY 5
  

Потерянные / Nowhere Boys / Сезон: 1 / Серии 1-13 из 13 (Даина Рейд / Daina Reid, Питер Кастэйрс / Peter Carstairs, Алистер Грирсон / Alister Grierson) [ 2013-2014 , Австралия , фантастика, приключения , PDTVRip ] MVO (VO-production) pb.wtf

Потерянные через торрент pb.wtf

Размер: 2.98 GB | Добавлен: 6 лет 4 мес. назад | Торрент скачан:232 раза
Скачать  

03-07-2014 04:08 Потерянные Скачать торрент  

Потерянные / Nowhere Boys
Год выпуска: 2013-2014
Страна: Австралия
Жанр: фантастика, приключения
Продолжительность: ~00:25:16(Серия)
Перевод: Любительский (многоголосый, закадровый)(VO-production)
Субтитры: Нет
Режиссер: Даина Рейд / Daina Reid, Питер Кастэйрс / Peter Carstairs, Алистер Грирсон / Alister Grierson
Сценарий: Тони Эйрс / Tony Ayres, Роджер Монк / Roger Monk, Крэйг Ирвин / Craig Irvin, Риз Грэхэм / Rhys Graham, Шанти Гаджон / Shanti Gudgeon
Продюсер: Тони Эйрс / Tony Ayres, Брендан Кэмпбелл / Brendan Campbell, Бет Фрэй / Beth Frey, Майкл МакМахон / Michael McMahon, Helen Panckhurst
Оператор: Саймон Чэпман / Simon Chapman
Композитор: Корнел Вильчек / Cornel Wilczek
В ролях:
Дуги Болдуин (Felix), Джон Лок (Andy), Рахарт Адамс (Sam), Мэтт Тестро (Jake), Darci McDonald (Ellen), Мичела Банас (Phoebe), Николас Когхлан (Mr. Bates), Тамала Шелтон (Mia), Шон Риз-Уэмисс (Oscar), Либби Тэннер (Sarah), Zelman Cressey Gladwin (Dylan), Logan Phillips (Trent)
Мировая премьера: 7 ноября 2013
Описание:
Группа подростков заблудилась в лесу. Там они провели не так уж и много времени. Но когда вернулись домой, то получилось так, что они попали в альтернативную реальность, где их и в помине нет.
Рейтинг
kinopoisk.ru: 6.000 (77)
imdb.com: 7.90 (242)
Качество: PDTVRip
Формат: AVI
Видео кодек: XviD
Аудио кодек: MP3
Видео: 1135 Кбит/сек, 624*352 (16:9), в 23,976 кадра/сек, xvid
Аудио: 128 Кбит/сек, 44,1 КГц, 2 канала, MPEG Audio (MP3)
Общее
Полное имя : D:\Фильмы\Потерянные(2013-2014)\Poteryannie(Ischeznuvshie).1sezon.13seriya.iz.13.2013-2014).avi
Формат : AVI
Формат/Информация : Audio Video Interleave
Размер файла : 230 Мбайт
Продолжительность : 25 м.
Общий поток : 1275 Кбит/сек
Программа кодирования : Lavf51.12.1

Видео
Идентификатор : 0
Формат : xvid
Идентификатор кодека : xvid
Продолжительность : 25 м.
Битрейт : 1135 Кбит/сек
Ширина : 624 пикселя
Высота : 352 пикселя
Соотношение сторон : 16:9
Частота кадров : 23,976 кадра/сек
Бит/(Пиксели*Кадры) : 0.216
Размер потока : 205 Мбайт (89%)

Аудио
Идентификатор : 1
Формат : MPEG Audio
Версия формата : Version 1
Профиль формата : Layer 3
Режим : Joint stereo
Расширение режима : MS Stereo
Идентификатор кодека : 55
Идентификатор кодека/Подсказка : MP3
Продолжительность : 25 м.
Вид битрейта : Постоянный
Битрейт : 128 Кбит/сек
Каналы : 2 канала
Частота : 44,1 КГц
Метод сжатия : С потерями
Размер потока : 23,1 Мбайт (10%)
Выравнивание : Соединение по промежуткам
Продолжительность промежутка : 26 мс. (0,63 видеокадр)
Библиотека кодирования : LAME3.97

скриншот   скриншот   скриншот   скриншот   скриншот   скриншот   скриншот   скриншот   скриншот   скриншот  

pb.wtf



Скачать Потерянные через торрент http://pic.kartinco.top/images/6/gjypv.jpg Скачать фильм Потерянные через торрент бесплантно в хорошем качестве Описание:Группа подростков заблудилась в лесу. Там они провели не так уж и много времени. Но когда вернулись домой, то получилось так, что ... 9.9 10 10
Торрент: Зарегистрирован [2014-07-03 04:08] · скачан: 232 раз
Статус: √ проверено
Размер: 2.98 GB
Как cкачать? Как скачать Потерянные через торрент | qTorrent

28-11-2019 20:33  

Отключить всю рекламу на сайте

03-07-2014 04:59 Потерянные Скачать торрент  

и как можно раздавать на такой скорости 15 kb/s ? Конечно же в любом случае спасибо, я о таком сериале даже не зналpb.wtf



03-07-2014 06:05 Потерянные Скачать торрент  

Jeck2000 писал(а):

и как можно раздавать на такой скорости 15 kb/s ? Конечно же в любом случае спасибо, я о таком сериале даже не знал

Проблема с провайдером сейчас все будет нормально)
pb.wtf



    Дорогой пользователь! Огромная просьба, поблагодарите релизера, оцените раздачу и оставьте свои комментарий, если Вы скачали Потерянные через торрент бесплатно! Внесите свою лепту в развитие PiratBit!
    Комментировать посты могут только пользователи прошедшие не сложную регистрацию
    Показать сообщения:    

    Потерянные через торрент
    Скачать бесплатно Потерянные
    Потерянные скачать торрент
    Потерянные смотреть онлайн
    Cкачать фильм Потерянные бесплатно
    Потерянные скачать торрент в хорошем качестве
    Потерянные смотреть онлайн бесплатно в хорошем качестве


    Вы не можете начинать темы
    Вы не можете отвечать на сообщения
    Вы не можете редактировать свои сообщения
    Вы не можете удалять свои сообщения
    Вы не можете голосовать в опросах
    Вы не можете прикреплять файлы к сообщениям
    Вы можете скачивать файлы