MEGA SALE -50% FORZA HORIZON 4 ULTIMATE+ВСЕ DLC+ОНЛАЙН всего за 599р. 299 руб. (супер цена). Внимание количество ограничено!!!

iTunes

1+1

iTunes

мы

iTunes

1

iTunes

Чернобыль

iTunes

Ральф против интернета

Лицензия

ПШазам

Лицензия

Игра престолов

Лицензия

30
pack

ВАЖНО

!!Акция!!

Alien_RageХит недели

RePack

Resident Evil 21

ИГРА 18+

pack

RePack

Metro:Exodus

!!Акция!!

Alien_Rage

RePack

fifa19

RePack

Assassins Creed: Odyssey

RePack

NEED FOR SPEED™ PAYBACK

3 сезон

9 сезон

Бесстыжие 9 сезон

Все сериалы

все сериалы на PB.wtf

RePack

FAR CRY 5
Ребята, катастрофически не хватает 7730р. для оплаты серверов за АВГУСТ (всвязи с блокировками трафик упал в 3 раза), 1-2р., выручайте.
  

Адская кухня / Paradise Alley (Сильвестр Сталлоне / Sylvester Stallone) [ 1978 , США , драма , DVDRip ] MVO pb.wtf

Адская кухня через торрент pb.wtf

Размер: 1.46 GB | Добавлен: 5 лет 2 мес. назад | Торрент скачан:84 раза
Скачать  

03-07-2014 09:55 Адская кухня Скачать торрент  

Адская кухня / Paradise Alley«The Carboni Boys. They haul ice, lay out stiffs and dance with monkeys»
Год выпуска: 1978
Страна: США
Жанр: драма
Продолжительность: 01:42:10
Перевод: Профессиональный (многоголосый, закадровый)
Субтитры: Нет
Режиссер: Сильвестр Сталлоне / Sylvester Stallone
Сценарий: Сильвестр Сталлоне / Sylvester Stallone
Продюсер: Артур Чобаниан / Arthur Chobanian, Херб Нанас / Herb Nanas, Эдвард Р. Прессман / Edward R. Pressman, Джон Ф. Роач / John F. Roach, Рональд А. Суппа / Ronald A. Suppa
Оператор: Ласло Ковач / László Kovács
Композитор: Билл Конти / Bill Conti, Том Уэйтс / Tom Waits
В ролях:
Сильвестр Сталлоне (Cosmo Carboni), Ли Каналито (Victor Carboni), Арманд Ассанте (Lenny Carboni), Фрэнк МакРей (Big Glory), Энн Арчер (Annie), Кевин Конуэй (Stitch), Терри Фанк (Frankie the Thumper), Джойс Ингаллс (Bunchie), Джо Спинелл (Burp), Эме Экклес (Susan Chow), Том Уэйтс (Mumbles), Чик Кэйси (Doorman)
Сборы в США: $7 185 518
Мировая премьера: 22 сентября 1978
Релиз на DVD: 16 июля 2009,«Настроение Video»
Описание:
Нью-Йорк, 1946 год. У трех братьев Карбони - Виктора, Ленни и Космо - одна единственная мечта в жизни: вырваться из самого бандитского района Нью-Йорка под названием «Адская кухня». Но для этого нужно разорвать круг беспросветной бедности, в которой они живут уже много лет. Предприимчивый Космо решает, что надежда заработать много денег все-таки есть. Он предлагает Виктору, самому сильному и спортивному из них, принять участие в серии матчей на рэстлинг-ринге...
Рейтинг
kinopoisk.ru: 6.543 (466)
imdb.com: 5.80 (2749)
MPAA: PG - Рекомендуется присутствие родителей
Качество: DVDRip
Формат: AVI
Видео кодек: XviD
Аудио кодек: AC3
Видео: 1589 Кбит/сек, 688*368 (1,85:1), в 25,000 кадров/сек, MPEG-4 Visual (XviD)
Аудио: 448 Кбит/сек, 48,0 КГц, 16 бит, 6 каналов, AC-3
Общее
Полное имя : D:\Фильмы\Адская кухня1978.avi
Формат : AVI
Формат/Информация : Audio Video Interleave
Размер файла : 1,46 Гбайт
Продолжительность : 1 ч. 42 м.
Общий поток : 2046 Кбит/сек
Программа кодирования : VirtualDubMod 1.5.10.2 (build 2540/release)
Библиотека кодирования : VirtualDubMod build 2540/release

Видео
Идентификатор : 0
Формат : MPEG-4 Visual
Профиль формата : Advanced Simple@L5
Параметр BVOP формата : 1
Параметр QPel формата : Нет
Параметр GMC формата : Без точки перехода
Параметр матрицы формата : Выборочная
Идентификатор кодека : XVID
Идентификатор кодека/Подсказка : XviD
Продолжительность : 1 ч. 42 м.
Битрейт : 1589 Кбит/сек
Ширина : 688 пикселей
Высота : 368 пикселей
Соотношение сторон : 1,85:1
Частота кадров : 25,000 кадров/сек
Цветовое пространство : YUV
Субдискретизация насыщенности : 4:2:0
Битовая глубина : 8 бит
Тип развёртки : Прогрессивная
Метод сжатия : С потерями
Бит/(Пиксели*Кадры) : 0.251
Размер потока : 1,13 Гбайт (78%)
Библиотека кодирования : XviD 1.2.1 (UTC 2008-12-04)

Аудио
Идентификатор : 1
Формат : AC-3
Формат/Информация : Audio Coding 3
Расширение режима : CM (complete main)
Параметр Endianness формата : Big
Идентификатор кодека : 2000
Продолжительность : 1 ч. 42 м.
Вид битрейта : Постоянный
Битрейт : 448 Кбит/сек
Каналы : 6 каналов
Расположение каналов : Front: L C R, Side: L R, LFE
Частота : 48,0 КГц
Битовая глубина : 16 бит
Метод сжатия : С потерями
Размер потока : 327 Мбайт (22%)
Выравнивание : Разделение по промежуткам
Продолжительность промежутка : 40 мс. (1,00 видеокадр)
Время предзагрузки промежутка : 500 мс.

скриншот   скриншот   скриншот   скриншот   скриншот   скриншот   скриншот   скриншот   скриншот   скриншот  

pb.wtf



Скачать Адская кухня через торрент http://pic.kartinco.top/images/6/djs97.jpg Скачать фильм Адская кухня через торрент бесплантно в хорошем качестве Описание:Нью-Йорк, 1946 год. У трех братьев Карбони - Виктора, Ленни и Космо - одна единственная мечта в жизни: вырваться из самого ... 10 10 5
Info! Золотая раздача, скачанное не засчитывается.
Торрент: Зарегистрирован [2014-07-03 09:55] · скачан: 84 раз
Статус: √ проверено
Размер: 1.46 GB
Как cкачать? Как скачать Адская кухня через торрент | qTorrent


>> Регистрируемся здесь <<






Отзывы и комментарии о схеме читаем и пишем здесь: ---> Отзывы и комментарии о схеме

Новые благодарочки в телеграм довольных пользователей:
скриншот   скриншот   скриншот   скриншот   скриншот

03-07-2014 10:18 Адская кухня Скачать торрент  

Спасибо !pb.wtf



03-07-2014 11:43 Адская кухня Скачать торрент  

qwq27rus писал(а):

Спасибо !

Тоже там рождён) Не за что!
pb.wtf



03-07-2014 13:33 Адская кухня Скачать торрент  

qwq27rus писал(а):

Спасибо !

Был у меня видеопрокат(ну ты понимаешь, наше время ) Всегда люди брали новое, хотя старого хорошего кино и не видели) Не , что не поменялось)pb.wtf



05-07-2014 12:24 Адская кухня Скачать торрент  

Сюда бы ещё авторский перевод, тогда полное ностальжи!!!pb.wtf



    Дорогой пользователь! Огромная просьба, поблагодарите релизера, оцените раздачу и оставьте свои комментарий, если Вы скачали Адская кухня через торрент бесплатно! Внесите свою лепту в развитие PiratBit!
    Комментировать посты могут только пользователи прошедшие не сложную регистрацию
    Показать сообщения:    

    Адская кухня через торрент
    Скачать бесплатно Адская кухня
    Адская кухня скачать торрент
    Адская кухня смотреть онлайн
    Cкачать фильм Адская кухня бесплатно
    Адская кухня скачать торрент в хорошем качестве
    Адская кухня смотреть онлайн бесплатно в хорошем качестве


    Вы не можете начинать темы
    Вы не можете отвечать на сообщения
    Вы не можете редактировать свои сообщения
    Вы не можете удалять свои сообщения
    Вы не можете голосовать в опросах
    Вы не можете прикреплять файлы к сообщениям
    Вы можете скачивать файлы