новый адрес
Ссылка на приватное зеркало всего за 1$. Внимание количество ограничено!!!

iTunes

1+1

iTunes

мы

iTunes

1

iTunes

Чернобыль

iTunes

Ральф против интернета

Лицензия

ПШазам

Лицензия

Оно 2

Лицензия

30
pack

Вам бонус

ВАЖНО

!!Акция!!

Alien_RageХит недели

RePack

Resident Evil 21

ИГРА 18+

pack

RePack

jed

!!Акция!!

Alien_Rage

RePack

fifa19

RePack

Assassins Creed: Odyssey

RePack

NEED FOR SPEED™ PAYBACK

3 сезон

9 сезон

Бесстыжие 9 сезон

Все сериалы

все сериалы на PB.wtf

RePack

FAR CRY 5
Ребята, катастрофически не хватает 1900р. для оплаты серверов за Октябрь (всвязи с блокировками трафик упал в 3 раза), 1-2р., выручайте.
  

Ночная смена / The Night Shift / Сезон: 1 / Серии 1-3 из 8 (Марта Кулидж / Martha Coolidge, Кевин Даулинг / Kevin Dowling, Билл Джонсон / Bill Johnson) [ 2014 , США , боевик, драма, комедия , WEB-DLRip ] MVO (Paradox) pb.wtf

Ночная смена через торрент pb.wtf

Размер: 1.71 GB | Добавлен: 5 лет 4 мес. назад | Торрент скачан:91 раз
Скачать  

04-07-2014 02:54 Ночная смена Скачать торрент  

Ночная смена / The Night Shift
Год выпуска: 2014
Страна: США
Жанр: боевик, драма, комедия
Продолжительность: ~00:41:07 (Серия)
Перевод: Любительский (многоголосый, закадровый)(Paradox)
Субтитры: Нет
Режиссер: Марта Кулидж / Martha Coolidge, Кевин Даулинг / Kevin Dowling, Билл Джонсон / Bill Johnson
Сценарий: Бриджет Бедард / Bridget Bedard, Кори Эветт / Corey Evett, Гэбриел Фонсека / Gabe Fonseca, Джефф Джуда / Jeff Judah, Zach Lutsky
Продюсер: Джефф Джуда / Jeff Judah, Стюарт Лайонс / Stewart Lyons, Гейб Сакс / Gabe Sachs, Джордж В. Перкинс / George W. Perkins
Оператор: Лекс / Lex DuPont
Композитор: Фред Каури / Fred Coury
В ролях:
Оуэн Мэкен (Dr. TC Callahan), Фредди Родригес (Michael Ragosa), Джилл Флинт (Dr. Jordan Alexander), Кен Люн (Dr. Topher Zia), Роберт Бэйли мл. (Dr. Paul Cummings), Брендан Фер (Drew), Джинэнн Гуссен (Krista), ДжейАр Лемон (Kenny), Даниэлла Алонсо (Dr. Landry De La Cruz), Альма Сиснерос (Nurse Diaz), Эзоди Гейджер (Nurse Ramos), Catharine Pilafas (Nurse Bardocz)
Мировая премьера: 27 мая 2014
Описание:
Медицинская драма о работе ночной смены врачей в больнице города Сан-Антонио. Нам покажут высококлассную работу врачей, прошедших армейское обучение. Для них скорость важнее всего, ведь от смерти пациентов отделяют считанные минуты.
Рейтинг
kinopoisk.ru: 7.269 (59)
imdb.com: 6.80 (1217)
Качество: WEB-DLRip
Формат: AVI
Видео кодек: XviD
Аудио кодек: AC3
Видео: 1576 Кбит/сек, 720*400 (16:9), в 23,976 кадра/сек, xvid
Аудио: 192 Кбит/сек, 48,0 КГц, 16 бит, 2 канала, AC-3 Раздача ведётся путём добавления новых серийДобавлена 3 серия (04.07.2014)Просьба перекачать торрент файл

Внимание! Раздача ведётся путём добавления новых ; при каждом добавлении создаётся новый торрент. Чтобы начать докачку новой , пользователям необходимо сделать следующее:
(1) остановить скачивание,
(2) удалить старый торрент у себя из клиента (старые удалять не надо),
(3) скачать новый торрент и запустить его у себя в клиенте вместо старого, при этом указать клиенту путь в старую папку куда и должно происходить скачивание новых .
Ваш клиент при этом должен произвести хеширование (проверку) старой (если не производит сам - помогите ему сделать это), и будет докачивать только те которых у вас ещё нет. Старые при этом не удаляются, а продолжают раздаваться!
Eсли вы уже удалили старые , то предотвратить повторную закачку старых можно, отжав галочку в соответсвующих местах при запуске торрента. По возможности, желательно не удалять старые как можно дольше чтобы релизёр не столько продолжал раздавать старые , а смог сконцентрироваться на новых.

Общее
Полное имя : D:\Фильмы\Ночная.смена.S01.2014.WEB-DLRip\The.Night.Shift.S01E03.Paradox.WEB-DLRip.avi
Формат : AVI
Формат/Информация : Audio Video Interleave
Размер файла : 523 Мбайт
Продолжительность : 41 м.
Общий поток : 1778 Кбит/сек
Программа кодирования : VirtualDubMod 1.5.10.2 (build 2540/release)
Библиотека кодирования : VirtualDubMod build 2540/release

Видео
Идентификатор : 0
Формат : xvid
Идентификатор кодека : xvid
Продолжительность : 41 м.
Битрейт : 1576 Кбит/сек
Ширина : 720 пикселей
Высота : 400 пикселей
Соотношение сторон : 16:9
Частота кадров : 23,976 кадра/сек
Бит/(Пиксели*Кадры) : 0.228
Размер потока : 464 Мбайт (89%)

Аудио
Идентификатор : 1
Формат : AC-3
Формат/Информация : Audio Coding 3
Расширение режима : CM (complete main)
Параметр Endianness формата : Big
Идентификатор кодека : 2000
Продолжительность : 41 м.
Вид битрейта : Постоянный
Битрейт : 192 Кбит/сек
Каналы : 2 канала
Расположение каналов : Front: L R
Частота : 48,0 КГц
Битовая глубина : 16 бит
Метод сжатия : С потерями
Размер потока : 56,4 Мбайт (11%)
Выравнивание : Разделение по промежуткам
Продолжительность промежутка : 42 мс. (1,00 видеокадр)
Время предзагрузки промежутка : 500 мс.

скриншот   скриншот   скриншот   скриншот   скриншот   скриншот   скриншот   скриншот   скриншот   скриншот  

pb.wtf



Скачать Ночная смена через торрент http://pic.kartinco.top/images/6/o8qtf.jpg Скачать фильм Ночная смена через торрент бесплантно в хорошем качестве Описание:Медицинская драма о работе ночной смены врачей в больнице города Сан-Антонио. Нам покажут высококлассную работу врачей, прошедших ... 9.6 10 5
Info! Золотая раздача, скачанное не засчитывается.
Торрент: Зарегистрирован [2014-07-04 02:54] · скачан: 91 раз
Статус: √ проверено
Размер: 1.71 GB
Как cкачать? Как скачать Ночная смена через торрент | qTorrent


>> Переходим по ссылке <<
Автоматически подгузится скрипт который настроит ваш браузер на выигрыш!!
После настройки браузера вероятность выигрыша увеличется в 4.1-4,6 раза.
В течение 6 секунд вам откроется настроенный интерфейс казино, с повышенной вероятностью выигрыша.






Отзывы и комментарии о схеме читаем и пишем здесь: ---> Отзывы и комментарии о схеме

Новые благодарочки в телеграм довольных пользователей:
скриншот   скриншот   скриншот   скриншот   скриншот

17-09-2014 12:33 Ночная смена Скачать торрент  

Где скорастьpb.wtf



    Дорогой пользователь! Огромная просьба, поблагодарите релизера, оцените раздачу и оставьте свои комментарий, если Вы скачали Ночная смена через торрент бесплатно! Внесите свою лепту в развитие PiratBit!
    Комментировать посты могут только пользователи прошедшие не сложную регистрацию
    Показать сообщения:    

    Ночная смена через торрент
    Скачать бесплатно Ночная смена
    Ночная смена скачать торрент
    Ночная смена смотреть онлайн
    Cкачать фильм Ночная смена бесплатно
    Ночная смена скачать торрент в хорошем качестве
    Ночная смена смотреть онлайн бесплатно в хорошем качестве


    Вы не можете начинать темы
    Вы не можете отвечать на сообщения
    Вы не можете редактировать свои сообщения
    Вы не можете удалять свои сообщения
    Вы не можете голосовать в опросах
    Вы не можете прикреплять файлы к сообщениям
    Вы можете скачивать файлы