Ссылка на приватное зеркало всего за 1$. Внимание количество ограничено!!!


iTunes

1+1

iTunes

мы

WEB-DL

1

iTunes

Чернобыль

iTunes

Ральф против интернета

Лицензия

ПШазам

Лицензия

Оно 2

WEB-DL

30
pack

Вам бонус

ВАЖНО

!!Акция!!

Alien_RageХит недели

RePack

Resident Evil 21

ИГРА 18+

pack

RePack

jed

!!Акция!!

Alien_Rage

RePack

fifa19

RePack

Assassins Creed: Odyssey

RePack

NEED FOR SPEED™ PAYBACK

4 сезон

9 сезон

Бесстыжие 9 сезон

Все сериалы

все сериалы на PB.wtf

RePack

FAR CRY 5
Ребята, катастрофически не хватает 1900р. для оплаты серверов за Октябрь (всвязи с блокировками трафик упал в 3 раза), 1-2р., выручайте.
  

В упор / Point Blank (Джон Бурмен / John Boorman) [1967, триллер, драма, криминал, BDRip] [MVO] + [Original] eng + Sub rus pb.wtf

В упор через торрент pb.wtf

Размер: 1.46 GB | Добавлен: 5 лет 5 мес. назад | Торрент скачан:39 раз
Скачать  

04-07-2014 05:41 В упор Скачать торрент  

В упор / Point Blank



Год выпуска: 1967
Страна: США
Жанр: триллер, драма, криминал
Продолжительность: 01:31:52
Перевод: Профессиональный (многоголосый, закадровый) - (SomeWax)
Cубтитры: русские
Оригинальная дорожка: английский
Субтитры: Русские, softsub (SRT), (кодировка - ANSI) - отдельным файлом

Режиссер: Джон Бурмен / John Boorman

В ролях: Ли Марвин, Энджи Дикинсон, Кинен Уинн, Кэррол О’Коннор, Ллойд Бокнер, Майкл Стронг, Джон Вернон, Шэрон Эккер, Джеймс Сиккинг, Сандра Уорнер
Описание: Гангстера Уокера, которого подло подставил напарник Риз, вот уже два года считают погибшим. Но Уокер возвращается и начинает мстить мафии, требуя украденные у него 93 000 долларов
Он - герой-одиночка со своим кодексом чести, одержимый жаждой мести. Деньги лишь предлог, главное для Уокера - получить моральную компенсацию за своё задетое самолюбие...

СЕМПЛ

Качество: BDRip [спасибо Enclave76 за исходник - BDRemux 1080p]
Формат: AVI
Видео кодек: XviD
Аудио кодек: AC3
Видео: XviD, 720x304 (2.37:1), 23.976 fps, 1868 kbps avg, 0.36 bit/pixel
Аудио 1: AC3 Dolby Digital, 48 kHz, 192 kbps, 2/0 (L,R) ch [MVO]
Аудио 2: AC3 Dolby Digital, 48 kHz, 192 kbps, 1/0 (C) ch [ENG]

Код:

Общее
Полное имя                               : Point_blank.1967.XviD.BDRip\Point_blank.1967.XviD.BDRip.MetionInka.avi
Формат                                   : AVI
Формат/Информация                        : Audio Video Interleave
Размер файла                             : 1,46 Гбайт
Продолжительность                        : 1 ч. 31 м.
Общий поток                              : 2268 Кбит/сек
Название фильма                          : Point_blank.1967.XviD.BDRip.MetionInka
Режиссёр                                 : rip by MetionInka
Жанр                                     : Drama / Crime / Thriller
Программа кодирования                    : VirtualDubMod 1.5.10.3 | www.virtualdub-fr.org || (build 2550/release)
Формат оригинала/Имя                     : Point Blank / 1967
Правообладатель                          : rutracker.org
Примечание                               : Rus_MVO + Eng_ORIG
Видео
Идентификатор                            : 0
Формат                                   : MPEG-4 Visual
Профиль формата                          : Advanced Simple@L5
Параметр BVOP формата                    : 2
Параметр QPel формата                    : Нет
Параметр GMC формата                     : Без точки перехода
Параметр матрицы формата                 : Выборочная
Идентификатор кодека                     : XVID
Идентификатор кодека/Подсказка           : XviD
Продолжительность                        : 1 ч. 31 м.
Битрейт                                  : 1869 Кбит/сек
Ширина                                   : 720 пикселей
Высота                                   : 304 пикселя
Соотношение сторон                       : 2,35:1
Частота кадров                           : 23,976 кадра/сек
Цветовое пространство                    : YUV
Субдискретизация насыщенности            : 4:2:0
Битовая глубина                          : 8 бит
Тип развёртки                            : Прогрессивная
Метод сжатия                             : С потерями
Бит/(Пиксели*Кадры)                      : 0.356
Размер потока                            : 1,20 Гбайт (82%)
Библиотека кодирования                   : XviD 73
Аудио #1
Идентификатор                            : 1
Формат                                   : AC-3
Формат/Информация                        : Audio Coding 3
Расширение режима                        : CM (complete main)
Параметр Endianness формата              : Big
Идентификатор кодека                     : 2000
Продолжительность                        : 1 ч. 31 м.
Вид битрейта                             : Постоянный
Битрейт                                  : 192 Кбит/сек
Каналы                                   : 2 канала
Расположение каналов                     : Front: L R
Частота                                  : 48,0 КГц
Битовая глубина                          : 16 бит
Метод сжатия                             : С потерями
Размер потока                            : 126 Мбайт (8%)
Выравнивание                             : Разделение по промежуткам
Продолжительность промежутка             : 42  мс. (1,00 видеокадр)
Время предзагрузки промежутка            : 500  мс.
Аудио #2
Идентификатор                            : 2
Формат                                   : AC-3
Формат/Информация                        : Audio Coding 3
Расширение режима                        : CM (complete main)
Параметр Endianness формата              : Big
Идентификатор кодека                     : 2000
Продолжительность                        : 1 ч. 31 м.
Вид битрейта                             : Постоянный
Битрейт                                  : 192 Кбит/сек
Каналы                                   : 1 канал
Расположение каналов                     : Front: C
Частота                                  : 48,0 КГц
Битовая глубина                          : 16 бит
Метод сжатия                             : С потерями
Размер потока                            : 126 Мбайт (8%)
Выравнивание                             : Разделение по промежуткам
Продолжительность промежутка             : 42  мс. (1,00 видеокадр)
Время предзагрузки промежутка            : 500  мс.

pb.wtf



Скачать В упор через торрент http://i63.fastpic.ru/big/2014/0703/0b/065e0e8c369a52c70db8308a941d5c0b.jpg Скачать фильм В упор через торрент бесплантно в хорошем качестве Описание: Гангстера Уокера, которого подло подставил напарник Риз, вот уже два года считают погибшим. Но Уокер возвращается и начинает ... 10 10 4
Info! Золотая раздача, скачанное не засчитывается.
Торрент: Зарегистрирован [2014-07-04 05:41] · скачан: 39 раз
Статус: √ проверено
Размер: 1.46 GB
Как cкачать? Как скачать В упор через торрент | qTorrent

28-11-2019 20:33  

Отключить всю рекламу на сайте

    Дорогой пользователь! Огромная просьба, поблагодарите релизера, оцените раздачу и оставьте свои комментарий, если Вы скачали В упор через торрент бесплатно! Внесите свою лепту в развитие PiratBit!
    Комментировать посты могут только пользователи прошедшие не сложную регистрацию
    Показать сообщения:    

    В упор через торрент
    Скачать бесплатно В упор
    В упор скачать торрент
    В упор смотреть онлайн
    Cкачать фильм В упор бесплатно
    В упор скачать торрент в хорошем качестве
    В упор смотреть онлайн бесплатно в хорошем качестве


    Вы не можете начинать темы
    Вы не можете отвечать на сообщения
    Вы не можете редактировать свои сообщения
    Вы не можете удалять свои сообщения
    Вы не можете голосовать в опросах
    Вы не можете прикреплять файлы к сообщениям
    Вы можете скачивать файлы