2 сезон

iTunes

1 сезон

1

iTunes

iTunes

iTunes

1 сезон

RePack

30

ИГРА 18+

pack

ВАЖНО

!!Акция!!

Alien_RageХит недели

RePack

MK11
pack

Забери бонус

RePack

jed

!!Акция!!

Alien_Rage

RePack

fifa19

RePack

Assassins Creed: Odyssey

RePack

NEED FOR SPEED™ PAYBACK

4 сезон

9 сезон

Бесстыжие 9 сезон

Все сериалы

все сериалы на PB.wtf

RePack

FAR CRY 5
  

Мост в Терабитию / Bridge to Terabithia (Габор Чупо) [2007 г., фэнтези, драма, приключения, семейный, BDRip 720p, Дубляж (Лицензия)] pb.wtf

Мост в Терабитию через торрент pb.wtf

Размер: 4.01 GB | Добавлен: 1 год 11 мес. назад | Торрент скачан:137 раз
Скачать  

04-07-2014 07:48 Мост в Терабитию Скачать торрент  

Мост в Терабитию / Bridge to TerabithiaГод выпуска: 2007
Страна: США
Жанр: фэнтези, драма, приключения, семейный
Продолжительность: 01:35:30
Перевод: Дубляж (Лицензия)
Субтитры: Отсутствуют

Режиссер: Габор Чупо
Продюссер: Лорен Ливайн, Хэл Либерман, Дэвид Патерсон
Сценарий: Джефф Стокуэлл, Дэвид Патерсон, Кэтрин Патерсон

Бюджет: $17 000 000
Премьера в мире: 15 февраля 2007


В ролях: Джош Хатчерсон, Анна-Cофия Робб, Эрин Аннис, Тайлер Этфилд, Микайла Баумель, Бенджамин Брайан, Катрина Серио, Лорен Клинтон, Брэндон Кук, Зуи Дешанель
Описание: Что может поджидать путника, отважившегося перемахнуть через стремительный ручей в чаще леса? Джесс Аарон и Лесли Берк, например, попали в волшебную страну Терабитию. Они встретили шагающие деревья, троллей, великанов, невиданных животных, а вскоре стали там королем и королевой. Волшебная сказка оживает, стоит только перейти через потайной мост…
Качество: BDRip 720p
Формат: MKV
Видео кодек: H.264
Аудио кодек: AC3
Видео: 1280x688 at 23.976 fps, MPEG-4 AVC, ~4800 kbps
Аудио №1: Русский: 48 kHz, AC3, 3/2 (L,C,R,l,r) + LFE ch, ~448.00 kbps |Дубляж, R5|
Аудио №2: Английский: 48 kHz, AC3, 3/2 (L,C,R,l,r) + LFE ch, ~640.00 kbps
скриншот   скриншот   скриншот   скриншот   скриншот  

Общее
Уникальный идентификатор : 243071499469808799717556050696471420602 (0xB6DDDE31AED362789892481128BD9EBA)
Полное имя : D:\Мост в Терабитию.2007.x264.BDRip.720p.DUB.mkv
Формат : Matroska
Версия формата : Version 4 / Version 2
Размер файла : 4,01 Гбайт
Продолжительность : 1 ч. 35 м.
Общий поток : 6008 Кбит/сек
Дата кодирования : UTC 2015-11-01 11:59:30
Программа кодирования : mkvmerge v7.8.0 ('River Man') 64bit built on Mar 27 2015 16:31:37
Библиотека кодирования : libebml v1.3.1 + libmatroska v1.4.2

Видео
Идентификатор : 1
Формат : AVC
Формат/Информация : Advanced Video Codec
Профиль формата : High@L4.1
Настройки формата : CABAC / 9 Ref Frames
Параметр CABAC формата : Да
Параметр RefFrames формата : 9 кадров
Идентификатор кодека : V_MPEG4/ISO/AVC
Продолжительность : 1 ч. 35 м.
Битрейт : 4800 Кбит/сек
Ширина : 1280 пикселей
Высота : 688 пикселей
Соотношение сторон : 1,85:1
Режим частоты кадров : Постоянный
Частота кадров : 23,976 (24000/1001) кадра/сек
Цветовое пространство : YUV
Субдискретизация насыщенности : 4:2:0
Битовая глубина : 8 бит
Тип развёртки : Прогрессивная
Бит/(Пиксели*Кадры) : 0.227
Размер потока : 3,20 Гбайт (80%)
Библиотека кодирования : x264 core 146 r2538 121396c
Настройки программы : cabac=1 / ref=9 / deblock=1:-2:-2 / analyse=0x3:0x113 / me=umh / subme=11 / psy=1 / psy_rd=1.00:0.00 / mixed_ref=1 / me_range=24 / chroma_me=1 / trellis=2 / 8x8dct=1 / cqm=0 / deadzone=21,11 / fast_pskip=0 / chroma_qp_offset=-2 / threads=4 / lookahead_threads=1 / sliced_threads=0 / nr=0 / decimate=1 / interlaced=0 / bluray_compat=0 / constrained_intra=0 / bframes=8 / b_pyramid=2 / b_adapt=2 / b_bias=0 / direct=3 / weightb=1 / open_gop=0 / weightp=2 / keyint=240 / keyint_min=22 / scenecut=40 / intra_refresh=0 / rc_lookahead=40 / rc=crf / mbtree=0 / crf=17.5 / qcomp=0.60 / qpmin=0 / qpmax=69 / qpstep=4 / vbv_maxrate=62500 / vbv_bufsize=78125 / crf_max=0.0 / nal_hrd=none / filler=0 / ip_ratio=1.40 / pb_ratio=1.30 / aq=1:1.00
Default : Да
Forced : Нет

Аудио #1
Идентификатор : 2
Формат : AC-3
Формат/Информация : Audio Coding 3
Идентификатор кодека : A_AC3
Продолжительность : 1 ч. 35 м.
Вид битрейта : Постоянный
Битрейт : 448 Кбит/сек
Каналы : 6 каналов
Расположение каналов : Front: L C R, Side: L R, LFE
Частота : 48,0 КГц
Частота кадров : 31,250 кадров/сек (1536 SPF)
Битовая глубина : 16 бит
Метод сжатия : С потерями
Размер потока : 306 Мбайт (7%)
Язык : Russian
ServiceKind/String : Complete Main
Default : Да
Forced : Нет

Аудио #2
Идентификатор : 3
Формат : AC-3
Формат/Информация : Audio Coding 3
Идентификатор кодека : A_AC3
Продолжительность : 1 ч. 35 м.
Вид битрейта : Постоянный
Битрейт : 640 Кбит/сек
Каналы : 6 каналов
Расположение каналов : Front: L C R, Side: L R, LFE
Частота : 48,0 КГц
Частота кадров : 31,250 кадров/сек (1536 SPF)
Битовая глубина : 16 бит
Метод сжатия : С потерями
Размер потока : 437 Мбайт (11%)
Язык : English
ServiceKind/String : Complete Main
Default : Нет
Forced : Нет

pb.wtf



Скачать Мост в Терабитию через торрент http://pic.kartinco.top/images/6/gmfu8.jpg Скачать фильм Мост в Терабитию через торрент бесплантно в хорошем качестве Описание: Что может поджидать путника, отважившегося перемахнуть через стремительный ручей в чаще леса? Джесс Аарон и Лесли Берк, например, ... 10 10 24
Info! Золотая раздача, скачанное не засчитывается.
Торрент: Зарегистрирован [2018-11-02 15:57] · скачан: 137 раз
Статус: √ проверено
Размер: 4.01 GB
Как cкачать? Как скачать Мост в Терабитию через торрент | qTorrent

% Раздел Тема Автор DL S | L
Фильмы [HD 720p, 1080p] (Хороший звук DUB, MVO) [ 7.76 GB ] Мост в Терабитию / Bridge to Terabithia [2007 BDRip 1080р ()] Xa0s Скачать
1 | 0
Фильмы 2006-2008 [ 2.05 GB ] Мост в Терабитию / Bridge to Terabithia [2007 BDRip ()] Lil Badun Скачать
1 | 0


Последний раз редактировалось: -Lexx- (2018-11-24 11:47), всего редактировалось 4 раз(а)

28-11-2019 20:33  

Отключить всю рекламу на сайте

04-07-2014 08:39 Мост в Терабитию Скачать торрент  

Слишком грустный фильмpb.wtf



04-07-2014 09:01 Мост в Терабитию Скачать торрент  

Офигенный Фильм!!! Вот кстати про "Грустный" это да, но все равно смотреть его надо, скачаю обязательно себе в коллекцию ...pb.wtf



04-07-2014 09:53 Мост в Терабитию Скачать торрент  

Старая, хорошая сказка.pb.wtf



03-11-2018 10:42 Мост в Терабитию Скачать торрент  

Пересматривал раз 5. Робб шикарнейшая актриса, жалко, что с ней мало годных фильмов. Вот этот, потом "Есть мечты, будут и путешествия" и "Лунатизм".pb.wtf



    Дорогой пользователь! Огромная просьба, поблагодарите релизера, оцените раздачу и оставьте свои комментарий, если Вы скачали Мост в Терабитию через торрент бесплатно! Внесите свою лепту в развитие PiratBit!
    Комментировать посты могут только пользователи прошедшие не сложную регистрацию
    Показать сообщения:    

    Мост в Терабитию через торрент
    Скачать бесплатно Мост в Терабитию
    Мост в Терабитию скачать торрент
    Мост в Терабитию смотреть онлайн
    Cкачать фильм Мост в Терабитию бесплатно
    Мост в Терабитию скачать торрент в хорошем качестве
    Мост в Терабитию смотреть онлайн бесплатно в хорошем качестве


    Вы не можете начинать темы
    Вы не можете отвечать на сообщения
    Вы не можете редактировать свои сообщения
    Вы не можете удалять свои сообщения
    Вы не можете голосовать в опросах
    Вы не можете прикреплять файлы к сообщениям
    Вы можете скачивать файлы