Ссылка на приватное зеркало нашего сайта всего за 1$. Внимание количество ограничено!!!

2 сезон

iTunes

1 сезон

1

iTunes

iTunes

iTunes

1 сезон

RePack

30

ИГРА 18+

pack

ВАЖНО

!!Акция!!

Alien_RageХит недели

RePack

MK11
pack

Забери бонус

RePack

jed

!!Акция!!

Alien_Rage

RePack

fifa19

RePack

Assassins Creed: Odyssey

RePack

NEED FOR SPEED™ PAYBACK

4 сезон

9 сезон

Бесстыжие 9 сезон

Все сериалы

все сериалы на PB.wtf

RePack

FAR CRY 5
  

Пока станица спит / Сезон: 1 / Серии 71-130 из 270 (Александр Мохов, Елена Цыплакова, Бата Недич) [2013-2014, Россия, Украина, мелодрама, HDTVRip] pb.wtf

Пока станица спит через торрент pb.wtf

Размер: 32.19 GB | Добавлен: 6 лет 2 мес. назад | Торрент скачан:46 раз
Скачать  

04-07-2014 12:56 Пока станица спит Скачать торрент  

Пока станица спит
Год выпуска: 2013-2014
Страна: Россия, Украина
Жанр: мелодрама
Продолжительность: ~00:44:11(Серия)
Перевод: Не требуется
Субтитры: Нет
Режиссер: Александр Мохов, Елена Цыплакова, Бата Недич
Сценарий: Наталья Козловская, Татьяна Павлович
Продюсер: Валентин Опалев, Влад Ряшин, Алексей Целихин, Андрей Тартаков, Александр Боковиков
Оператор: Виктор Лысак
Композитор: Андрей Кравченко, Юта
В ролях:
Зоряна Марченко (Марыся), Екатерина Олькина (Алёна), Вячеслав Дробинков (Спепан Грушин), Дмитрий Назаров (Григорий), Артем Алексеев (Федор), Дмитрий Арбенин (Николай), Александр Мохов (Петр Аверьянович Колеванов), Олеся Жураковская (Любаша), Ольга Бережная (Моника служанка), Ева Авеева (Катюша), Владимир Горянский (Тимофей Сорока), Станислав Боклан (Козьма)
Мировая премьера: 6 января 2014
Описание:
Это история о любви. О любви свободной, страстной и безудержной, не терпящей никаких ограничений, будь то сословное, имущественное или иное неравенство… Марыся – одна из главных героинь этой истории. Красивая молодая казачка выросла в атмосфере безумной любви отца – любой каприз, любая прихоть ее тут же беспрекословно выполняются. Судьба сводит ее с молодым дворянином Степаном, который приезжает в станицу со своей возлюбленной Аленой, чтобы девушку насильно не выдали замуж за богатого, но нелюбимого купца Петра Колеванова. Купец годится в отцы Алене, но ее родителей это не смущает – ведь столь удачная партия обеспечит будущее дочери, а они сами смогут поправить свое материальное положение за счет предприимчивого зятя. После того как дочь сбежала из дома, семья оказалась опозорена настолько, что удачно выйти замуж, а скорее всего, вообще выйти замуж, Алене бы уже не удалось. Но Колеванов решил не отступать от красавицы и взялся вернуть "будущую невесту" в отчий дом и насильно сделать своей женой. Степан и Алена, прячась от родительского гнева и собираясь тайно обручиться, снимают дом у одной из обитательниц станицы и называются братом и сестрой. На свое несчастье Степан спасает от верной гибели Марысю, которую понесла норовистая лошадь. Девушка с первого взгляда влюбляется в своего спасителя и готова во что бы то ни стало женить на себе видного парня. А получив от Степана недвусмысленный отказ, решает отомстить. Но это всего лишь начало истории...
Качество: HDTVRip
Формат: AVI
Видео кодек: XviD
Аудио кодек: AC3
Видео: ~1538 Кбит/сек, 720*400 (16:9), в 25,000 кадров/сек, MPEG-4 Visual (XviD)
Аудио: 192 Кбит/сек, 48,0 КГц, 16 бит, 2 канала, AC-3
Общее
Полное имя : D:\Фильмы\Пока станица спит.2.часть.2013-2014.HDTVRip\Poka.stanitsa.spit.130.2013-2014.HDTVRip).avi
Формат : AVI
Формат/Информация : Audio Video Interleave
Размер файла : 550 Мбайт
Продолжительность : 44 м.
Общий поток : 1740 Кбит/сек
Программа кодирования : VirtualDubMod 1.5.10.3 | www.virtualdub-fr.org || (build 2550/release)
Библиотека кодирования : VirtualDubMod build 2550/release

Видео
Идентификатор : 0
Формат : MPEG-4 Visual
Профиль формата : Advanced Simple@L5
Параметр BVOP формата : 1
Параметр QPel формата : Нет
Параметр GMC формата : Без точки перехода
Параметр матрицы формата : Default (H.263)
Идентификатор кодека : XVID
Идентификатор кодека/Подсказка : XviD
Продолжительность : 44 м.
Битрейт : 1538 Кбит/сек
Ширина : 720 пикселей
Высота : 400 пикселей
Соотношение сторон : 16:9
Частота кадров : 25,000 кадров/сек
Цветовое пространство : YUV
Субдискретизация насыщенности : 4:2:0
Битовая глубина : 8 бит
Тип развёртки : Прогрессивная
Метод сжатия : С потерями
Бит/(Пиксели*Кадры) : 0.214
Размер потока : 486 Мбайт (88%)
Библиотека кодирования : XviD 1.2.1 (UTC 2008-12-04)

Аудио
Идентификатор : 1
Формат : AC-3
Формат/Информация : Audio Coding 3
Расширение режима : CM (complete main)
Параметр Endianness формата : Big
Идентификатор кодека : 2000
Продолжительность : 44 м.
Вид битрейта : Постоянный
Битрейт : 192 Кбит/сек
Каналы : 2 канала
Расположение каналов : Front: L R
Частота : 48,0 КГц
Битовая глубина : 16 бит
Метод сжатия : С потерями
Размер потока : 60,7 Мбайт (11%)
Выравнивание : Разделение по промежуткам
Продолжительность промежутка : 40 мс. (1,00 видеокадр)
Время предзагрузки промежутка : 500 мс.

скриншот   скриншот   скриншот   скриншот   скриншот   скриншот   скриншот   скриншот   скриншот   скриншот  

pb.wtf



Скачать Пока станица спит через торрент http://pic.kartinco.top/images/6/k1vd1.jpg Скачать фильм Пока станица спит через торрент бесплантно в хорошем качестве Описание:Это история о любви. О любви свободной, страстной и безудержной, не терпящей никаких ограничений, будь то сословное, имущественное ... 10 10 2
Info! Золотая раздача, скачанное не засчитывается.
Торрент: Зарегистрирован [2014-08-09 05:20] · скачан: 46 раз
Статус: √ проверено
Размер: 32.19 GB
Как cкачать? Как скачать Пока станица спит через торрент | qTorrent

28-11-2019 20:33  

Отключить всю рекламу на сайте

    Дорогой пользователь! Огромная просьба, поблагодарите релизера, оцените раздачу и оставьте свои комментарий, если Вы скачали Пока станица спит через торрент бесплатно! Внесите свою лепту в развитие PiratBit!
    Комментировать посты могут только пользователи прошедшие не сложную регистрацию
    Показать сообщения:    

    Пока станица спит через торрент
    Скачать бесплатно Пока станица спит
    Пока станица спит скачать торрент
    Пока станица спит смотреть онлайн
    Cкачать фильм Пока станица спит бесплатно
    Пока станица спит скачать торрент в хорошем качестве
    Пока станица спит смотреть онлайн бесплатно в хорошем качестве


    Вы не можете начинать темы
    Вы не можете отвечать на сообщения
    Вы не можете редактировать свои сообщения
    Вы не можете удалять свои сообщения
    Вы не можете голосовать в опросах
    Вы не можете прикреплять файлы к сообщениям
    Вы можете скачивать файлы