2 сезон

iTunes

MVO

1

2 сезон

iTunes

iTunes

1 сезон

RePack

30

Новинка

ВАЖНО

ИГРА 18+

pack

RePack

MK11
pack

Легкие деньги

RePack

jed

RePack

fifa19

RePack

RDR2

RePack

NEED FOR SPEED™ PAYBACK

4 сезон

9 сезон

Бесстыжие 9 сезон

Все сериалы

все сериалы на PB.wtf

RePack

FAR CRY 5

Anonymous, добрый день, мы не успеваем собрать деньги на оплату серверов за декабрь и январь, помогите нам пожалуйста в это трудное время. В качестве благодарности мы отключим Вам всю рекламу на сайте (укажите свой ник в строку Ваше имя)!

×
  
Magnet ссылка

Мэри и Марта / Mary and Martha (Филлип Нойс) [2013 г., драма, WEB-DLRip, Профессиональный многоголосый] pb.wtf

Мэри и Марта через торрент pb.wtf

Размер: 1.46 GB | Добавлен: 6 лет 6 мес. назад | Торрент скачан:87 раз
Скачать  

04-07-2014 18:21 Мэри и Марта Скачать торрент  

Мэри и Марта / Mary and Martha
Год выпуска: 2013
Страна:
Жанр: драма
Продолжительность: 01:34:00
Перевод: Профессиональный многоголосый
Субтитры: отсутствуют

Режиссер: Филлип Нойс
Продюссер: Хилари Беван Джонс, Лиза Брюс
Сценарий: Ричард Кёртис

Премьера в мире: 1 марта 2013




В ролях: Хилари Суэнк, Бренда Блетин, Сэм Клафлин, Фрэнк Грилло, Люкс Хэйни-джардин, Бонго Мбутума, Йен Редфорд, Джеймс Вудс.

Описание: Две матери теряют своих сыновей, больных малярией.

Качество: WEB-DLRip
Формат: AVI
Видео кодек: XviD
Аудио кодек: AC3
Видео: MPEG4, XviD, 720x400 (16:9), 23.976 fps, 2 001 Kbps (0.290 bit/pixel)
Аудио#1: AC-3, 48.0 KHz, 2 ch, 192 Kbps, CBR
скриншот   скриншот   скриншот  

Общее
Полное имя : \\Rt-n14u\elements\Download2\Complete\Mary_and_Martha.avi
Формат : AVI
Формат/Информация : Audio Video Interleave
Размер файла : 1,46 Гбайт
Продолжительность : 1 ч. 34 м.
Общий поток : 2202 Кбит/сек
Программа кодирования : VirtualDubMod 1.5.10.3 (build 2550/release)
Библиотека кодирования : VirtualDubMod build 2550/release

Видео
Идентификатор : 0
Формат : MPEG-4 Visual
Профиль формата : Advanced Simple@L5
Параметр BVOP формата : 2
Параметр QPel формата : Нет
Параметр GMC формата : Без точки перехода
Параметр матрицы формата : Выборочная
Идентификатор кодека : XVID
Идентификатор кодека/Подсказка : XviD
Продолжительность : 1 ч. 34 м.
Битрейт : 2001 Кбит/сек
Ширина : 720 пикселей
Высота : 400 пикселей
Соотношение сторон : 16:9
Частота кадров : 23,976 кадра/сек
Цветовое пространство : YUV
Субдискретизация насыщенности : 4:2:0
Битовая глубина : 8 бит
Тип развёртки : Прогрессивная
Метод сжатия : С потерями
Бит/(Пиксели*Кадры) : 0.290
Размер потока : 1,33 Гбайт (91%)
Библиотека кодирования : XviD 64

Аудио
Идентификатор : 1
Формат : AC-3
Формат/Информация : Audio Coding 3
Расширение режима : CM (complete main)
Параметр Endianness формата : Big
Идентификатор кодека : 2000
Продолжительность : 1 ч. 34 м.
Вид битрейта : Постоянный
Битрейт : 192 Кбит/сек
Каналы : 2 канала
Расположение каналов : Front: L R
Частота : 48,0 КГц
Битовая глубина : 16 бит
Метод сжатия : С потерями
Размер потока : 130 Мбайт (9%)
Выравнивание : Разделение по промежуткам
Продолжительность промежутка : 42 мс. (1,00 видеокадр)
Время предзагрузки промежутка : 500 мс.

pb.wtf



Скачать Мэри и Марта через торрент http://pic.kartinco.top/images/6/8wbpa.jpg Скачать фильм Мэри и Марта через торрент бесплантно в хорошем качестве Описание: Две матери теряют своих сыновей, больных ... 9.4 10 5
Торрент: Зарегистрирован [2014-07-04 18:21] · скачан: 87 раз
Статус: T временная
Размер: 1.46 GB
Как cкачать? Как скачать Мэри и Марта через торрент | UTorrent

28-11-2019 20:33  

Отключить всю рекламу на сайте

05-07-2014 03:14 Мэри и Марта Скачать торрент  

Описание: Две матери теряют своих сыновей, больных малярией.
гениально!!pb.wtf



05-07-2014 08:35 Мэри и Марта Скачать торрент  

Что значит теряют? Теряют в том смысле что они умирают от малярии, или теряют в супермаркете. sarcastic sarcastic sarcasticpb.wtf



07-07-2014 06:42 Мэри и Марта Скачать торрент  

Конечно в супермаркете. Потом дети заражают других детей, вирус мутирует и вызывает сумасшедшую агрессию. Но заболевают только дети и ужас охватывает человечество...pb.wtf



    Дорогой пользователь! Огромная просьба, поблагодарите релизера, оцените раздачу и оставьте свои комментарий, если Вы скачали Мэри и Марта через торрент бесплатно! Внесите свою лепту в развитие PiratBit!
    Комментировать посты могут только пользователи прошедшие не сложную регистрацию
    Показать сообщения:    

    Мэри и Марта через торрент
    Скачать бесплатно Мэри и Марта
    Мэри и Марта скачать торрент
    Мэри и Марта смотреть онлайн
    Cкачать фильм Мэри и Марта бесплатно
    Мэри и Марта скачать торрент в хорошем качестве
    Мэри и Марта смотреть онлайн бесплатно в хорошем качестве


    Вы не можете начинать темы
    Вы не можете отвечать на сообщения
    Вы не можете редактировать свои сообщения
    Вы не можете удалять свои сообщения
    Вы не можете голосовать в опросах
    Вы не можете прикреплять файлы к сообщениям
    Вы можете скачивать файлы