2 сезон

iTunes

1 сезон

1

iTunes

iTunes

iTunes

1 сезон

RePack

30

ИГРА 18+

pack

ВАЖНО

!!Акция!!

Alien_RageХит недели

RePack

MK11
pack

Забери бонус

RePack

jed

!!Акция!!

Alien_Rage

RePack

fifa19

RePack

Assassins Creed: Odyssey

RePack

NEED FOR SPEED™ PAYBACK

4 сезон

9 сезон

Бесстыжие 9 сезон

Все сериалы

все сериалы на PB.wtf

RePack

FAR CRY 5
  

Съезд на Марракеш / Exit Marrakech (Каролина Линк / Caroline Link) [2013, Германия, драма, HDRip, Любительский (двухголосый) pb.wtf

Съезд на Марракеш через торрент pb.wtf

Размер: 2.05 GB | Добавлен: 6 лет 3 мес. назад | Торрент скачан:29 раз
Скачать  

05-07-2014 09:11 Съезд на Марракеш Скачать торрент  

Съезд на Марракеш / Exit Marrakech


Год выпуска: 2013
Страна: Германия
Жанр:драма
Продолжительность:02:02:29
Перевод:Любительский (двухголосый)[datynet & selena]

Субтитры: Нет
Режиссер:Каролина Линк / Caroline Link

  • В ролях:

    Самуэль Шнайдер (Ben), Ульрих Тукур (Father), Хафсия Херци (Karima), Йозеф Бирбихлер, Мари-Лу Селлем (Lea), Abdesslam Bouhssini (Ahmed), Стефани Хёнер (Chris), Ронья Йерабек (Paula), Клара-Мария Паццини (Hannah), Том Радиш (Tom), Гёц Шульте (Martin - «Odoardo»), Пауль Триллер (Schoki)

  • Описание:
    Бену 16, и он весьма способный молодой человек. На летние каникулы Бен отправляется к своему отцу Хайнриху, признанному театральному режиссеру, в Марракеш, где тот гастролирует со своим театром. Родители Бена давно разведены. Юноша не только редко видит отца, но и, выросший с матерью, не принимает его. Между отцом и сыном пролегла за долгие годы целая пропасть непонимания и отчуждения. Бену не по душе роскошный отель, куда поселил его Хайнрих: он чувствует себя в нем словно птица в золотой клетке. Бен тайком сбегает из Марракеша со случайной знакомой Каримой. Отцу и сыну предстоит найти друг друга в чужой стране в прямом и переносном смыслах...

  • Мировая премьера:28 июня 2013


      Качество: HDRip
      Формат: AVI
      Видео кодек: XviD
      Аудио кодек:MP3-AC3
      Видео: XviD, 720x304 (2.35:1), 1995 kbps, 24 fps, 0,380 bpp
      Аудио №1: MP3 / 2.0 / 48 kHz / 192 kbps - Русский
      Аудио №2: AC3 / 2.0 / 48 kHz / 192 kbps / 16 bit -Немецкий


    Код:

    General
    Complete name                            : D:\Торенты\Exit.Marrakech.2013.L2.HDRip.avi
    Format                                   : AVI
    Format/Info                              : Audio Video Interleave
    Format profile                           : OpenDML
    File size                                : 2.05 GiB
    Duration                                 : 2h 2mn
    Overall bit rate                         : 2 398 Kbps
    Writing application                      : VirtualDubMod 1.5.10.3 | www.virtualdub-fr.org || (build 2550/release)
    Writing library                          : VirtualDubMod build 2550/release

    Video
    ID                                       : 0
    Format                                   : MPEG-4 Visual
    Format profile                           : Advanced Simple@L5
    Format settings, BVOP                    : 1
    Format settings, QPel                    : No
    Format settings, GMC                     : No warppoints
    Format settings, Matrix                  : Custom
    Codec ID                                 : XVID
    Codec ID/Hint                            : XviD
    Duration                                 : 2h 2mn
    Bit rate                                 : 1 995 Kbps
    Width                                    : 720 pixels
    Height                                   : 304 pixels
    Display aspect ratio                     : 2.35:1
    Frame rate                               : 24.000 fps
    Color space                              : YUV
    Chroma subsampling                       : 4:2:0
    Bit depth                                : 8 bits
    Scan type                                : Progressive
    Compression mode                         : Lossy
    Bits/(Pixel*Frame)                       : 0.380
    Stream size                              : 1.71 GiB (83%)
    Writing library                          : XviD 1.2.1 (UTC 2008-12-04)

    Audio #1
    ID                                       : 1
    Format                                   : MPEG Audio
    Format version                           : Version 1
    Format profile                           : Layer 3
    Mode                                     : Joint stereo
    Codec ID                                 : 55
    Codec ID/Hint                            : MP3
    Duration                                 : 2h 2mn
    Bit rate mode                            : Constant
    Bit rate                                 : 192 Kbps
    Channel(s)                               : 2 channels
    Sampling rate                            : 48.0 KHz
    Compression mode                         : Lossy
    Stream size                              : 168 MiB (8%)
    Alignment                                : Aligned on interleaves
    Interleave, duration                     : 42 ms (1.00 video frame)
    Interleave, preload duration             : 504 ms

    Audio #2
    ID                                       : 2
    Format                                   : AC-3
    Format/Info                              : Audio Coding 3
    Mode extension                           : CM (complete main)
    Codec ID                                 : 2000
    Duration                                 : 2h 2mn
    Bit rate mode                            : Constant
    Bit rate                                 : 192 Kbps
    Channel(s)                               : 2 channels
    Channel positions                        : Front: L R
    Sampling rate                            : 48.0 KHz
    Bit depth                                : 16 bits
    Compression mode                         : Lossy
    Stream size                              : 168 MiB (8%)
    Alignment                                : Split accross interleaves
    Interleave, duration                     : 42 ms (1.00 video frame)
    Interleave, preload duration             : 500 ms

    Скриншоты:

    Каталог Новинок (Фильмы-трейлеры, Игры, Сериалы, Мультфильмы)

    © Оформление by Raven
    pb.wtf



  • Скачать Съезд на Марракеш через торрент http://i61.fastpic.ru/big/2014/0705/ea/6cb03547f81b4afd491c98e515511eea.jpg Скачать фильм Съезд на Марракеш через торрент бесплантно в хорошем качестве Описание:Бену 16, и он весьма способный молодой человек. На летние каникулы Бен отправляется к своему отцу Хайнриху, признанному ... 10 10 1
    Торрент: Зарегистрирован [2014-07-05 09:11] · скачан: 29 раз
    Статус: T временная
    Размер: 2.05 GB
    Как cкачать? Как скачать Съезд на Марракеш через торрент | qTorrent

    % Раздел Тема Автор DL S | L
    Фильмы (Blu-ray, BD-Remux, HDDVD) [ 33.56 GB ] Съезд на Марракеш / Exit Marrakech [2013 Германия BDRemux] DVO Ворон Скачать
    1 | 0

    28-11-2019 20:33  

    Отключить всю рекламу на сайте

      Дорогой пользователь! Огромная просьба, поблагодарите релизера, оцените раздачу и оставьте свои комментарий, если Вы скачали Съезд на Марракеш через торрент бесплатно! Внесите свою лепту в развитие PiratBit!
      Комментировать посты могут только пользователи прошедшие не сложную регистрацию
      Показать сообщения:    

      Съезд на Марракеш через торрент
      Скачать бесплатно Съезд на Марракеш
      Съезд на Марракеш скачать торрент
      Съезд на Марракеш смотреть онлайн
      Cкачать фильм Съезд на Марракеш бесплатно
      Съезд на Марракеш скачать торрент в хорошем качестве
      Съезд на Марракеш смотреть онлайн бесплатно в хорошем качестве


      Вы не можете начинать темы
      Вы не можете отвечать на сообщения
      Вы не можете редактировать свои сообщения
      Вы не можете удалять свои сообщения
      Вы не можете голосовать в опросах
      Вы не можете прикреплять файлы к сообщениям
      Вы можете скачивать файлы