MEGA SALE -75% Borderlands 3 Super Deluxe всего за 550р. 180 руб. (супер цена). Внимание количество ограничено!!!

iTunes

1+1

iTunes

мы

iTunes

1

iTunes

Чернобыль

iTunes

Ральф против интернета

Лицензия

ПШазам

Лицензия

Игра престолов

Лицензия

30
pack

ВАЖНО

!!Акция!!

Alien_RageХит недели

RePack

Resident Evil 21

ИГРА 18+

pack

RePack

Metro:Exodus

!!Акция!!

Alien_Rage

RePack

fifa19

RePack

Assassins Creed: Odyssey

RePack

NEED FOR SPEED™ PAYBACK

3 сезон

9 сезон

Бесстыжие 9 сезон

Все сериалы

все сериалы на PB.wtf

RePack

FAR CRY 5
Ребята, катастрофически не хватает 1900р. для оплаты серверов за АВГУСТ (всвязи с блокировками трафик упал в 3 раза), 1-2р., выручайте.
  

Операция «Мертвый снег» / Død snø (Томми Виркола / Tommy Wirkola) [2009, Норвегия, ужасы, комедия, BDRip] DUB Лицензия pb.wtf

Операция «Мертвый снег» через торрент pb.wtf

Размер: 1.45 GB | Добавлен: 5 лет 3 мес. назад | Торрент скачан:746 раз
Скачать  

05-07-2014 09:43 Операция «Мертвый снег» Скачать торрент  

Операция «Мертвый снег» / Død snø
«Студенты-медики против зомби-нацистов!»

Год выпуска: 2009
Страна: Норвегия
Жанр:ужасы, комедия
Продолжительность:01:31:30
Перевод:Дубляж - [Лицензия]

Субтитры: русские, английские (внешние,srt)
Режиссер:Томми Виркола / Tommy Wirkola

  • В ролях:

    Вегар Хоел (Martin), Стиг Фроде Хенриксен (Roy), Шарлотта Фрогнер (Hanna), Ласс Валдал (Vegard), Иви Кассет Ростен (Liv), Еппе Леурсен (Erlend), Дженни Скавлан (Chris), Эни Даль Торп (Sara), Бьорн Сундквист (Turgåer), Орхан Гамст (Oberst Herzog), Стейнар Каарстейн (Nazi Zombie, в титрах не указан), Caroline Thielemann (Nazi Zombie, в титрах не указана)

  • Описание:
    Группа студентов-медиков отправляется в горы, чтобы провести там несколько дней на каникулах. Вместо отдыха и развлечений в декорациях идиллического норвежского пейзажа молодые люди попадают в кошмарный сон - им приходится бороться за жизнь в схватке с пропавшим здесь когда-то во время войны отрядом немецких солдат, превратившихся теперь в зомби.

  • Мировая премьера:9 января 2009


      Релиз от
      Автор рипа: Vиkt0R
      Качество: BDRip
      Формат: AVI
      Видео кодек: XviD
      Аудио кодек:AC3
      Видео: XviD, 720x384 (1.875), 1818 kbps, 24 fps, 0,274 bpp
      Аудио: AC3 / 5.1 / 48 kHz / 448 kbps / 16 bit


    Код:

    General
    Complete name                            : D:\Торенты\Operaciya.Mertvyj.sneg.2009.RUS.BDRip.XviD.AC3.-HQCLUB\Operaciya.Mertvyj.sneg.2009.RUS.BDRip.XviD.AC3.-HQCLUB.avi
    Format                                   : AVI
    Format/Info                              : Audio Video Interleave
    File size                                : 1.45 GiB
    Duration                                 : 1h 31mn
    Overall bit rate                         : 2 276 Kbps
    Movie name                               : Dead Snow (2009) BDRip
    Director                                 : Vиkt0R
    Genre                                    : Action/Comedy
    Writing application                      : VirtualDubModRus 1.5.10.2 (build 2542/release)
    Copyright                                : http://hqclub.net/
    Comment                                  : R.G. HQCLUB

    Video
    ID                                       : 0
    Format                                   : MPEG-4 Visual
    Format profile                           : Advanced Simple@L5
    Format settings, BVOP                    : 1
    Format settings, QPel                    : No
    Format settings, GMC                     : No warppoints
    Format settings, Matrix                  : Custom
    Codec ID                                 : XVID
    Codec ID/Hint                            : XviD
    Duration                                 : 1h 31mn
    Bit rate                                 : 1 818 Kbps
    Width                                    : 720 pixels
    Height                                   : 384 pixels
    Display aspect ratio                     : 1.875
    Frame rate                               : 24.000 fps
    Color space                              : YUV
    Chroma subsampling                       : 4:2:0
    Bit depth                                : 8 bits
    Scan type                                : Progressive
    Compression mode                         : Lossy
    Bits/(Pixel*Frame)                       : 0.274
    Stream size                              : 1.16 GiB (80%)
    Writing library                          : XviD 1.2.1 (UTC 2008-12-04)

    Audio
    ID                                       : 1
    Format                                   : AC-3
    Format/Info                              : Audio Coding 3
    Mode extension                           : CM (complete main)
    Codec ID                                 : 2000
    Duration                                 : 1h 31mn
    Bit rate mode                            : Constant
    Bit rate                                 : 448 Kbps
    Channel(s)                               : 6 channels
    Channel positions                        : Front: L C R, Side: L R, LFE
    Sampling rate                            : 48.0 KHz
    Bit depth                                : 16 bits
    Compression mode                         : Lossy
    Stream size                              : 293 MiB (20%)
    Alignment                                : Split accross interleaves
    Interleave, duration                     : 42 ms (1.00 video frame)

    Скриншоты:

    Каталог Новинок (Фильмы-трейлеры, Игры, Сериалы, Мультфильмы)

    © Оформление by Raven
    pb.wtf



  • Скачать Операция «Мертвый снег» через торрент http://i64.fastpic.ru/big/2014/0705/33/d663e48f5419d40b92cc79ac303ad833.jpeg Скачать фильм Операция «Мертвый снег» через торрент бесплантно в хорошем качестве Описание:Группа студентов-медиков отправляется в горы, чтобы провести там несколько дней на каникулах. Вместо отдыха и развлечений в ... 8.9 10 28
    Info! Золотая раздача, скачанное не засчитывается.
    Торрент: Зарегистрирован [2014-07-05 09:43] · скачан: 746 раз
    Статус: √ проверено
    Размер: 1.45 GB
    Как cкачать? Как скачать Операция «Мертвый снег» через торрент | qTorrent


    >> Регистрируемся здесь <<






    Отзывы и комментарии о схеме читаем и пишем здесь: ---> Отзывы и комментарии о схеме

    Новые благодарочки в телеграм довольных пользователей:
    скриншот   скриншот   скриншот   скриншот   скриншот
      Дорогой пользователь! Огромная просьба, поблагодарите релизера, оцените раздачу и оставьте свои комментарий, если Вы скачали Операция «Мертвый снег» через торрент бесплатно! Внесите свою лепту в развитие PiratBit!
      Комментировать посты могут только пользователи прошедшие не сложную регистрацию
      Показать сообщения:    

      Операция «Мертвый снег» через торрент
      Скачать бесплатно Операция «Мертвый снег»
      Операция «Мертвый снег» скачать торрент
      Операция «Мертвый снег» смотреть онлайн
      Cкачать фильм Операция «Мертвый снег» бесплатно
      Операция «Мертвый снег» скачать торрент в хорошем качестве
      Операция «Мертвый снег» смотреть онлайн бесплатно в хорошем качестве


      Вы не можете начинать темы
      Вы не можете отвечать на сообщения
      Вы не можете редактировать свои сообщения
      Вы не можете удалять свои сообщения
      Вы не можете голосовать в опросах
      Вы не можете прикреплять файлы к сообщениям
      Вы можете скачивать файлы