2 сезон

iTunes

MVO

1

2 сезон

iTunes

iTunes

1 сезон

RePack

30

Ultimate

ВАЖНО

ИГРА 18+

pack

RePack

MK11
pack

Легкие деньги

RePack

jed

RePack

fifa19

RePack

RDR2

RePack

NEED FOR SPEED™ PAYBACK

4 сезон

9 сезон

Бесстыжие 9 сезон

Все сериалы

все сериалы на PB.wtf

RePack

FAR CRY 5

Anonymous, доброй ночи, мы не успеваем собрать деньги на оплату серверов за декабрь и январь, помогите нам пожалуйста в это трудное время. В качестве благодарности мы отключим Вам всю рекламу на сайте (укажите свой ник в строку Ваше имя)!

×
  
Magnet ссылка

Совместная поездка / Ride Along (Тим Стори) [2014 г., боевик, комедия, BDRip, Дубляж, Лицензия] pb.wtf

Совместная поездка через торрент pb.wtf

Размер: 2.19 GB | Добавлен: 6 лет 6 мес. назад | Торрент скачан:1040 раз
Скачать  

05-07-2014 13:25 Совместная поездка Скачать торрент  

Совместная поездка / Ride Along
Год выпуска: 2014
Страна: США / Cube Vision, LBI Entertainment, Rainforest Films
Жанр: боевик, комедия
Продолжительность: 01:39:31
Перевод: Дубляж (Лицензия)

Режиссер: Тим Стори

В ролях: Айс Кьюб, Кевин Харт, Джон Легуизамо, Брюс МакГилл, Тика Самптер, Брайан Коллен, Лоренс Фишбёрн, Драгош Букур, Гари Оуэн, Джейкоб Латимор

Описание: Охранник Бен отправляется вместе со своим шурином Джеймсом в патруль по Атланте, чтобы доказать, что он достоин жениться на Анджеле, сестре Джеймса.

Качество: BDRip (Рип с Blu-ray CEE 1080p AVC DTS 5.1)
Формат: AVI
Видео кодек: XviD
Аудио кодек: AC3
Видео: MPEG4, XviD, 720x304 (2.35:1), 23.976 fps, 2 686 Kbps (0.512 bit/pixel)
Аудио: AC-3, 48.0 KHz, 6 ch, 448 Kbps, CBR


Общее
Полное имя : H:\кино\Совместная поездка.2014.BDRip.avi.avi
Формат : AVI
Формат/Информация : Audio Video Interleave
Профиль формата : OpenDML
Размер файла : 2,19 Гбайт
Продолжительность : 1 ч. 39 м.
Общий поток : 3146 Кбит/сек
Программа кодирования : VirtualDubMod 1.5.10.3 | www.virtualdub-fr.org || (build 2550/release)
Библиотека кодирования : VirtualDubMod build 2550/release

Видео
Идентификатор : 0
Формат : MPEG-4 Visual
Профиль формата : Advanced Simple@L5
Параметр BVOP формата : 2
Параметр QPel формата : Нет
Параметр GMC формата : Без точки перехода
Параметр матрицы формата : Default (H.263)
Идентификатор кодека : XVID
Идентификатор кодека/Подсказка : XviD
Продолжительность : 1 ч. 39 м.
Битрейт : 2686 Кбит/сек
Ширина : 720 пикселей
Высота : 304 пикселя
Соотношение сторон : 2,35:1
Частота кадров : 23,976 кадра/сек
Цветовое пространство : YUV
Субдискретизация насыщенности : 4:2:0
Битовая глубина : 8 бит
Тип развёртки : Прогрессивная
Метод сжатия : С потерями
Бит/(Пиксели*Кадры) : 0.512
Размер потока : 1,87 Гбайт (85%)
Библиотека кодирования : XviD 1.2.1 (UTC 2008-12-04)

Аудио
Идентификатор : 1
Формат : AC-3
Формат/Информация : Audio Coding 3
Расширение режима : CM (complete main)
Параметр Endianness формата : Big
Идентификатор кодека : 2000
Продолжительность : 1 ч. 39 м.
Вид битрейта : Постоянный
Битрейт : 448 Кбит/сек
Каналы : 6 каналов
Расположение каналов : Front: L C R, Side: L R, LFE
Частота : 48,0 КГц
Битовая глубина : 16 бит
Метод сжатия : С потерями
Размер потока : 319 Мбайт (14%)
Выравнивание : Разделение по промежуткам
Продолжительность промежутка : 42 мс. (1,00 видеокадр)
Время предзагрузки промежутка : 500 мс.

pb.wtf



Скачать Совместная поездка через торрент http://pic.kartinco.top/images/6/6hrt5.jpg Скачать фильм Совместная поездка через торрент бесплантно в хорошем качестве Описание: Охранник Бен отправляется вместе со своим шурином Джеймсом в патруль по Атланте, чтобы доказать, что он достоин жениться на ... 9.6 10 27
Торрент: Зарегистрирован [2014-07-05 13:25] · скачан: 1 040 раз
Статус: √ проверено
Размер: 2.19 GB
Как cкачать? Как скачать Совместная поездка через торрент | UTorrent

% Раздел Тема Автор DL S | L
Фильмы (HD 720p, 1080p) (48-60 fps) [ 2.9 GB ] Совместная поездка / Ride Along [2014 BDRip 720p / 60 FPS ] от R.G. HD-Films slaventi-69 Скачать
1 | 0
Видео для КПК и Смартфонов [ 706 MB ] Совместная поездка / Ride Along [2013 BDRip / КПК] Skillters Скачать
1 | 0
Фильмы 2014 [DVDrip, WEB-DLRip, HDrip] [ 1.46 GB ] Совместная поездка / Ride Along [2014 Тим Стори HDRip ] MihailHD Скачать
1 | 0
Фильмы 2013 [DVDrip, WEB-DLRip, HDrip] [ 2.18 GB ] Совместная поездка / Ride Along [2013 BDRip-AVC] DUB potroks Скачать
1 | 0
Фильмы 2013 [DVDrip, WEB-DLRip, HDrip] [ 1.46 GB ] Совместная поездка / Ride Along [2013 BDRip-AVC] DUB potroks Скачать
1 | 0
Фильмы [HD 720p, 1080p] (Хороший звук DUB, MVO) [ 6.17 GB ] Совместная поездка / Ride Along [2014 Тим Стори BDRip 720p ] Ворон Скачать
1 | 0
Фильмы (Blu-ray, BD-Remux, HDDVD) [ 26.93 GB ] Совместная поездка / Ride Along [2014 Blu-ray + Оригинал] Бумер Скачать
1 | 0

28-11-2019 20:33  

Отключить всю рекламу на сайте

05-07-2014 16:19 Совместная поездка Скачать торрент  

Спасибо за релиз. Но фильм конечно из 10 на 3... и даже с очень жесткой натяжкой... Одним словом.. он не получилсяpb.wtf



05-07-2014 22:15 Совместная поездка Скачать торрент  

какое дерьмо!!!!!!!!!!!!!pb.wtf



27-01-2015 20:13 Совместная поездка Скачать торрент  

А я начал смотреть даже очень прикольный.... Досмотрю до конца отпишусь.pb.wtf



28-01-2015 17:12 Совместная поездка Скачать торрент  

Фильм супер! сюжет правданемного предсказуем, но в целом... насмеялись!pb.wtf



    Дорогой пользователь! Огромная просьба, поблагодарите релизера, оцените раздачу и оставьте свои комментарий, если Вы скачали Совместная поездка через торрент бесплатно! Внесите свою лепту в развитие PiratBit!
    Комментировать посты могут только пользователи прошедшие не сложную регистрацию
    Показать сообщения:    

    Совместная поездка через торрент
    Скачать бесплатно Совместная поездка
    Совместная поездка скачать торрент
    Совместная поездка смотреть онлайн
    Cкачать фильм Совместная поездка бесплатно
    Совместная поездка скачать торрент в хорошем качестве
    Совместная поездка смотреть онлайн бесплатно в хорошем качестве


    Вы не можете начинать темы
    Вы не можете отвечать на сообщения
    Вы не можете редактировать свои сообщения
    Вы не можете удалять свои сообщения
    Вы не можете голосовать в опросах
    Вы не можете прикреплять файлы к сообщениям
    Вы можете скачивать файлы