Присоединяйтесь к нам в Telegram!, здесь всегда актуальный адрес сайта, оперативная поддержка и многое другое!!

>

5.9

iTunes

7.4

iTunes

9.4

1 сезон

1

7.4

2 сезон

7.2

iTunes

7.3

1 сезон

13

6.1

iTunes

8.3

Пиратка

30

ULTIMATE

pack

9.9

Лицензия

ВАЖНО

ИГРА 18+

pack

7.3

RePack

MK11

7.7

RePack

jed

7.8

RePack

fifa19

8.5

RePack

RDR2

RePack

NEED FOR SPEED™ PAYBACK

5 сезон

9 сезон

Бесстыжие 9 сезон

Все сериалы

все сериалы на PB.wtf

RePack

FAR CRY 5

Anonymous, доброй ночи, мы катастрофически не успеваем собрать деньги на оплату серверов, помогите нам пожалуйста 5,10,15р., для нас важна любая помощь . В качестве благодарности мы отключим Вам всю рекламу на сайте (укажите свой ник в строку Ваше имя)!

×
  
Magnet ссылка

Ciao Ciao Bella Musica / Видео; Al Bano I Romina Power, Alice, Ricchi E Poveri, Toto Cutugno, Loredana Berte, Pupo. [1983 г., Pop / Live, DVDRip, Оригинал] pb.wtf

Ciao Ciao Bella Musica через торрент pb.wtf

Размер: 7.14 GB | Добавлен: 7 лет 5 мес. назад | Торрент скачан:10 раз
Смотреть онлайн Ciao Ciao Bella Musica | Скачать    Ребята, помогите собрать деньги на оплату серверов!!!

05-07-2014 15:07 Ciao Ciao Bella Musica Скачать торрент  

Ciao Ciao Bella Musica / Видео; Al Bano I Romina Power, Alice, Ricchi E Poveri, Toto Cutugno Loredana Berte PupoГод выпуска: 1983
Страна: Италия
Продолжительность: 2:24:40
Перевод: Оригинал

В ролях: Al Bano I Romina Power, Alice, Ricchi E Poveri, Toto Cutugno, Loredana Berte, Pupo, Umberto Tozzi

Описание: Клипы

Качество: DVDRip

Формат: AVI
Видео кодек: XviD
Аудио кодек: AC3
Видео: Xvid 720x544, 25000fps, 7101kbps
Аудио: Dolby AC3, 48000Hz, stereo, 256kbps
Релиз от: rip bay LUG 30





General
Complete name : I:\01 favorit 6\Ciao Ciao Bella\DVD 2-3.avi
Format : AVI
Format/Info : Audio Video Interleave
File size : 1.23 GiB
Duration : 23mn 52s
Overall bit rate : 7 364 Kbps
Writing application : VirtualDubMod 1.5.4.1 (build 2178/release)
Writing library : VirtualDubMod build 2178/release

Video
ID : 0
Format : MPEG-4 Visual
Format profile : Advanced Simple@L5
Format settings, BVOP : No
Format settings, QPel : No
Format settings, GMC : No warppoints
Format settings, Matrix : Custom
Codec ID : XVID
Codec ID/Hint : XviD
Duration : 23mn 52s
Bit rate : 7 101 Kbps
Width : 720 pixels
Height : 544 pixels
Display aspect ratio : 4:3
Frame rate : 25.000 fps
Color space : YUV
Chroma subsampling : 4:2:0
Bit depth : 8 bits
Scan type : Progressive
Compression mode : Lossy
Bits/(Pixel*Frame) : 0.725
Stream size : 1.18 GiB (96%)
Writing library : XviD 1.2.1 (UTC 2008-12-04)

Audio
ID : 1
Format : AC-3
Format/Info : Audio Coding 3
Mode extension : CM (complete main)
Format settings, Endianness : Big
Codec ID : 2000
Duration : 23mn 52s
Bit rate mode : Constant
Bit rate : 256 Kbps
Channel(s) : 2 channels
Channel positions : Front: L R
Sampling rate : 48.0 KHz
Bit depth : 16 bits
Compression mode : Lossy
Stream size : 43.7 MiB (3%)
Alignment : Split accross interleaves
Interleave, duration : 96 ms (2.40 video frames)
Interleave, preload duration : 96 ms

pb.wtf



Скачать Ciao Ciao Bella Musica через торрент https://pic1.kartinco.top/images/61/ebthz.jpg Скачать, смотреть онлайн Ciao Ciao Bella Musica бесплантно в хорошем качестве Описание: ... 10 10 4
Info! Золотая раздача, скачанное не засчитывается.
Торрент: Зарегистрирован [2014-07-05 15:07] · скачан: 10 раз
Статус: √ проверено
Размер: 7.14 GB
Как cкачать? Как скачать Ciao Ciao Bella Musica через торрент | UTorrent

28-11-2019 20:33  

Отключить всю рекламу на сайте

05-07-2014 18:23 Ciao Ciao Bella Musica Скачать торрент  

Судя по скринам, это сделано с VHS кассетыpb.wtf



05-07-2014 20:05 Ciao Ciao Bella Musica Скачать торрент  

Lexxy писал(а):

Судя по скринам, это сделано с VHS кассеты

я качнул DVD и сделал с него рипpb.wtf



    Дорогой пользователь! Огромная просьба, поблагодарите релизера, оцените раздачу и оставьте свои комментарий, если Вы скачали Ciao Ciao Bella Musica через торрент бесплатно!
    Комментировать посты могут только пользователи прошедшие не сложную регистрацию
    Показать сообщения:    

    Ciao Ciao Bella Musica через торрент
    Скачать бесплатно Ciao Ciao Bella Musica
    Ciao Ciao Bella Musica скачать торрент
    Ciao Ciao Bella Musica смотреть онлайн
    Cкачать фильм Ciao Ciao Bella Musica бесплатно
    Ciao Ciao Bella Musica скачать торрент в хорошем качестве
    Ciao Ciao Bella Musica смотреть онлайн бесплатно в хорошем качестве


    Вы не можете начинать темы
    Вы не можете отвечать на сообщения
    Вы не можете редактировать свои сообщения
    Вы не можете удалять свои сообщения
    Вы не можете голосовать в опросах
    Вы не можете прикреплять файлы к сообщениям
    Вы можете скачивать файлы