Ссылка на приватное зеркало нашего сайта всего за 1$. Внимание количество ограничено!!!

2 сезон

iTunes

1 сезон

1

2 сезон

2 сезон

iTunes

1 сезон

RePack

30

Новинка

ВАЖНО

ИГРА 18+

pack

RePack

MK11
pack

Забери бонус

RePack

jed

!!Акция!!

Alien_Rage

RePack

fifa19

RePack

Assassins Creed: Odyssey

RePack

NEED FOR SPEED™ PAYBACK

4 сезон

9 сезон

Бесстыжие 9 сезон

Все сериалы

все сериалы на PB.wtf

RePack

FAR CRY 5
  

Рэмбо: Первая кровь / First Blood (Тед Котчефф) [1982 г., Боевик, триллер, драма, приключения, Blu-ray, Профессиональный двухголосый] pb.wtf

Рэмбо: Первая кровь через торрент pb.wtf

Размер: 18.06 GB | Добавлен: 6 лет 4 мес. назад | Торрент скачан:5 раз
Скачать  

05-07-2014 16:07 Рэмбо: Первая кровь Скачать торрент  

Рэмбо: Первая кровь / First Blood
Год выпуска: 1982
Страна: США
Жанр: Боевик, триллер, драма, приключения
Продолжительность: 01:33:16
Перевод: Профессиональный двухголосый+Авторский - Юрий Живов+Французкий+Оригинал
Субтитры: Английские, русские

Режиссер: Тед Котчефф

В ролях: Сильвестр Сталлоне, Ричард Кренна, Брайан Деннехи, Билл МакКинни, Джек Старретт, Майкл Толбот, Крис Малки, Джон МакЛиам, Альф Хамфриз, Дэвид Карузо

Описание: Ветеран Вьетнамской войны Джон Рэмбо в надежде отыскать своих боевых товарищей путешествует по США. Узнав о скоропостижной кончине своего последнего товарища из элитного военного подразделения «зелёных беретов», он приходит в тихий провинциальный городок. Там его встречает задиристый местный шериф Уилл Тисл, который принимает Рэмбо за бродягу и, отвезя его за пределы города, говорит ему, чтобы тот не возвращался, иначе его ждут неприятности.

Качество: Blu-ray
Формат: BDMV
Видео кодек: H.264
Аудио кодек: AC3-DTS-HD MA
Видео: MPEG-4 AVC, (1920x1080),22 900 Кбит/с, 23.976 кадра/сек
Аудио#1: DTS-HD MA-6 ch, 1509 kbps (Eng) 48.0 KHz Оригинал
Аудио#2: DTS-HD MA-6 ch, 1509 kbps (France) 48.0 KHz Французкий
Аудио#3: AC-3 6 ch,384 kbps (Rus) 48.0 KHz Профессиональный двухголосый
Аудио#4: AC-3 6 ch,448 kbps (Rus) 48.0 KHz Авторский - Юрий Живов
скриншот   скриншот   скриншот  

Тип потока: Видео
Длительность: 01:33:07
Кодек: VC-1
Кодек/профиль: Advanced@L3
Кодек/ID: 234
Размеры изображения: 1920 x 1080 (16:9)
Частота кадров: 23.976 fps
Метод сжатия: Lossy
Цветовое пространство: YUV
Тип развёртки: Progressive
Колориметрия: 4:2:0
Глубина: 8 bits
:
Тип потока: Звук #1
Длительность: 01:33:07.531
Кодек: DTS
Кодек/описание: Digital Theater Systems
Кодек/профиль: MA / Core
Режим смешивания: Stream extension
Кодек/ID: 134
Частота дискретизации: 48.0 KHz
Каналов: 6 channels
Битрейт: Unknown / 1 509 Kbps
Битрейт/тип: Variable
Глубина: 16 bits
Метод сжатия: Lossless / Lossy
:
Тип потока: Звук #2
Длительность: 01:33:07.531
Кодек: DTS
Кодек/описание: Digital Theater Systems
Кодек/профиль: HRA / Core
Режим смешивания: Stream extension
Кодек/ID: 133
Частота дискретизации: 48.0 KHz
Каналов: 6 channels
Битрейт: 2 046 Kbps / 1 509 Kbps
Битрейт/тип: Constant
Размер потока: 1.33 GiB (9%)
Глубина: 16 bits
Метод сжатия: Lossy
:
Тип потока: Звук #3
Длительность: 01:33:08.224
Кодек: AC-3
Кодек/описание: Audio Coding 3
Кодек/ID: 129
Частота дискретизации: 48.0 KHz
Каналов: 6 channels
Битрейт: 384 Kbps
Битрейт/тип: Constant
Размер потока: 256 MiB (2%)
Глубина: 16 bits
Метод сжатия: Lossy
:
Тип потока: Звук #4
Длительность: 01:33:08.224
Кодек: AC-3
Кодек/описание: Audio Coding 3
Кодек/ID: 129
Частота дискретизации: 48.0 KHz
Каналов: 6 channels
Битрейт: 448 Kbps
Битрейт/тип: Constant
Размер потока: 298 MiB (2%)
Глубина: 16 bits
Метод сжатия: Lossy
:
Тип потока: Субтитры #1
Формат: PGS
:
Тип потока: Субтитры #2
Формат: PGS

pb.wtf



Скачать Рэмбо: Первая кровь через торрент http://pic.kartinco.top/images/6/legg2.jpg Скачать фильм Рэмбо: Первая кровь через торрент бесплантно в хорошем качестве Описание: Ветеран Вьетнамской войны Джон Рэмбо в надежде отыскать своих боевых товарищей путешествует по США. Узнав о скоропостижной ... 10 10 8
Info! Золотая раздача, скачанное не засчитывается.
Торрент: Зарегистрирован [2014-07-05 16:07] · скачан: 5 раз
Статус: √ проверено
Размер: 18.06 GB
Как cкачать? Как скачать Рэмбо: Первая кровь через торрент | qTorrent

% Раздел Тема Автор DL S | L
Ultra HD (UHD: 2K, 4K, 8K) — видео сверхвысокой чёткости [ 67.98 GB ] Рэмбо: Первая кровь / First Blood [1982 UHD Blu-ray 2160p] 5xMVO + 8xAVO + VO sheker187 Скачать
1 | 0
Фильмы до 2000 г. [ 2.14 GB ] Первая кровь / Рэмбо / First Blood / Rambo [1982 BDRip-AVC] [VO] killermax2013 Скачать
1 | 0
Ultra HD (UHD: 2K, 4K, 8K) — видео сверхвысокой чёткости [ 50.22 GB ] Рэмбо: Первая кровь 2 / Rambo: First Blood Part II [1985 UHD BDRemux 2160p] 3xMVO + 5xAVO sheker187 Скачать
1 | 0
Ultra HD (UHD: 2K, 4K, 8K) — видео сверхвысокой чёткости [ 48.72 GB ] Рэмбо: Первая кровь / First Blood [1982 UHD BDRemux 2160p] 2xMVO + 5xAVO sheker187 Скачать
1 | 0
Фильмы [HD 720p, 1080p] (Хороший звук DUB, MVO) [ 7.95 GB ] Рэмбо: Первая кровь / First Blood [1982 BDRip 1080p MVO лицензия] Бумер Скачать
1 | 0
Фильмы (Blu-ray, BD-Remux, HDDVD) [ 18.71 GB ] Рэмбо: Первая кровь 2 / Rambo: First Blood Part II [1985 BD-Remux многоголосый] Бумер Скачать
1 | 0
Фильмы до 2000 г. [ 1.45 GB ] Рэмбо: Первая кровь 2 / Rambo: First Blood Part II [1985 BDRip Бумер Скачать
1 | 0

28-11-2019 20:33  

Отключить всю рекламу на сайте

05-07-2014 20:05 Рэмбо: Первая кровь Скачать торрент  

хоть фильм и одногодка, но книга всё ж таки интереснее.pb.wtf



    Дорогой пользователь! Огромная просьба, поблагодарите релизера, оцените раздачу и оставьте свои комментарий, если Вы скачали Рэмбо: Первая кровь через торрент бесплатно! Внесите свою лепту в развитие PiratBit!
    Комментировать посты могут только пользователи прошедшие не сложную регистрацию
    Показать сообщения:    

    Рэмбо: Первая кровь через торрент
    Скачать бесплатно Рэмбо: Первая кровь
    Рэмбо: Первая кровь скачать торрент
    Рэмбо: Первая кровь смотреть онлайн
    Cкачать фильм Рэмбо: Первая кровь бесплатно
    Рэмбо: Первая кровь скачать торрент в хорошем качестве
    Рэмбо: Первая кровь смотреть онлайн бесплатно в хорошем качестве


    Вы не можете начинать темы
    Вы не можете отвечать на сообщения
    Вы не можете редактировать свои сообщения
    Вы не можете удалять свои сообщения
    Вы не можете голосовать в опросах
    Вы не можете прикреплять файлы к сообщениям
    Вы можете скачивать файлы