1 сезон

1 сезон

iTunes

1

КиноПоиск HD

Кинопоиск HD

iTunes

13

1 сезон

RePack

30

Новинка

ВАЖНО

ИГРА 18+

pack

RePack

MK11
pack

Легкие деньги

RePack

jed

RePack

fifa19

RePack

RDR2

RePack

NEED FOR SPEED™ PAYBACK

4 сезон

9 сезон

Бесстыжие 9 сезон

Все сериалы

все сериалы на PB.wtf

RePack

FAR CRY 5
  
Magnet ссылка

Коробка / Le carton (Шарль Немес) [2004 г., комедия, драма, DVDRip, Дубляж, Лицензия] pb.wtf

Коробка через торрент pb.wtf

Размер: 1.36 GB | Добавлен: 6 лет 9 мес. назад | Торрент скачан:253 раза
Скачать  

06-07-2014 03:54 Коробка Скачать торрент  

Коробка / Le carton
Год выпуска: 2004
Страна: Франция
Жанр: комедия, драма
Продолжительность: 01:25:55
Перевод: Дубляж, Лицензия
Тип релиза: Лицензия
Субтитры: нет

Режиссер: Шарль Немес
Продюссер: Себастьен Фечнер, Николас Ваннье
Сценарий: Клеман Мишель, Себастьен Фечнер

Премьера в мире: 6 октября 2004, ...

зрителям, достигшим 16 лет



В ролях: Венсан Дезанья, Бруно Саломон, Армель Дойч, Фред Тесто, Омар Си, Катрин Бенгиги, Эмили Шеснэ, Сесилия Кара, Санта Озина, Джамель Бурра

Описание: Антуан, немного легкомысленный и рассеянный студент, разбужен голосом своей домовладелицы, которая сообщает, что он должен освободить жилплощадь к 13 часам: собрать свои шмотки и убираться восвояси. Для Антуана это катастрофа. Его квартира — это сумасшедший кавардак.Единственный способ успеть вовремя и не потерять залог за квартиру на три месяца — позвать на помощь друзей. Чтобы выпутаться из всего этого, Антуану придется преодолеть лабиринт невероятных сложностей, которые препятствуют переезду. День задается ужасным, а тут еще вездесущие полицейские, которые постоянно присматривают за друзьями. И весь этот кошмар нужно стойко вынести, чтобы, наконец, выяснить, что зачастую самое неудобное в переезде — это сами друзья!..

Качество: DVDRip
Формат: AVI
Видео кодек: XviD
Аудио кодек: AC3
Видео: 720x304 (2.37:1), 25 fps, XviD build 73 ~2063 kbps avg, 0.38 bit/pixel
Аудио#1: 48 kHz, AC3 Dolby Digital, 3/0 (Front: L R, LFE) ch, ~192.00 kbps avg
Релиз от: Deadmauvlad
скриншот   скриншот   скриншот   скриншот   скриншот   скриншот   скриншот   скриншот   скриншот   скриншот  

Общее
Полное имя : D:\Рипы выкладка [Deadmauvlad]\Рипы готовые\Korobka.DVDRip.2004.Deadmauvlad.R5.avi
Формат : AVI
Формат/Информация : Audio Video Interleave
Размер файла : 1,36 Гбайт
Продолжительность : 1 ч. 25 м.
Общий поток : 2265 Кбит/сек
Название фильма : Korobka.DVDRip.2004.Deadmauvlad.R5
Режиссёр : Deadmauvlad
Жанр : Криминал,драма
Программа кодирования : VirtualDubMod 1.5.10.3 | www.virtualdub-fr.org || (build 2550/release)
Формат оригинала/Имя : Фильм
Правообладатель : Goldenshara
Примечание : Релиз Deadmauvlad

Видео
Идентификатор : 0
Формат : MPEG-4 Visual
Профиль формата : Advanced Simple@L5
Параметр BVOP формата : 1
Параметр QPel формата : Нет
Параметр GMC формата : Без точки перехода
Параметр матрицы формата : Выборочная
Идентификатор кодека : XVID
Идентификатор кодека/Подсказка : XviD
Продолжительность : 1 ч. 25 м.
Битрейт : 2064 Кбит/сек
Ширина : 720 пикселей
Высота : 304 пикселя
Соотношение сторон : 2,35:1
Частота кадров : 25,000 кадров/сек
Цветовое пространство : YUV
Субдискретизация насыщенности : 4:2:0
Битовая глубина : 8 бит
Тип развёртки : Прогрессивная
Метод сжатия : С потерями
Бит/(Пиксели*Кадры) : 0.377
Размер потока : 1,24 Гбайт (91%)
Библиотека кодирования : XviD 73

Аудио
Идентификатор : 1
Формат : AC-3
Формат/Информация : Audio Coding 3
Расширение режима : CM (complete main)
Параметр Endianness формата : Big
Идентификатор кодека : 2000
Продолжительность : 1 ч. 25 м.
Вид битрейта : Постоянный
Битрейт : 192 Кбит/сек
Каналы : 3 канала
Расположение каналов : Front: L R, LFE
Частота : 48,0 КГц
Битовая глубина : 16 бит
Метод сжатия : С потерями
Размер потока : 118 Мбайт (8%)
Выравнивание : Разделение по промежуткам
Продолжительность промежутка : 40 мс. (1,00 видеокадр)
Время предзагрузки промежутка : 500 мс.

pb.wtf



Скачать Коробка через торрент https://pic.kartinco.top/images/6/7nw6f.jpg Скачать фильм Коробка через торрент бесплантно в хорошем качестве Описание: Антуан, немного легкомысленный и рассеянный студент, разбужен голосом своей домовладелицы, которая сообщает, что он должен ... 10 10 5
Info! Золотая раздача, скачанное не засчитывается.
Торрент: Зарегистрирован [2014-07-06 03:54] · скачан: 253 раз
Статус: √ проверено
Размер: 1.36 GB
Как cкачать? Как скачать Коробка через торрент | UTorrent

% Раздел Тема Автор DL S | L
Фильмы 2001-2005 [ 748 MB ] Коробка / Le carton [2004 DVDRip ] Se7ven95 Скачать
1 | 0
Фильмы (DVD фильмы) [ 3.51 GB ] Коробка / Le carton [2004 DVD-5 ] Se7ven95 Скачать
1 | 0
Фильмы 2001-2005 [ 1.37 GB ] Коробка / Le carton [2004 DVDRip лицензия] metanoia Скачать
1 | 0

28-11-2019 20:33  

Отключить всю рекламу на сайте

06-07-2014 03:55 Коробка Скачать торрент  

p.s это не дубль с этой раздачей
при покупке DVD диска в наличии был только релиз с 2-х канальным дубляжем (на самом деле 3-х канальный почему так не понял так что все притензии к дистрибьютору Videogram)

Цитата:

Информация о диске
звук
Русский Dolby Surround 2.0
Французский Dolby Surround 2.0
региональный код 5
изображение WideScreen 16:9 (1.78:1)
цвет PAL

исходный DVD5 залью в ближайшее время !!!
pb.wtf



06-07-2014 05:16 Коробка Скачать торрент  

фильм супер, советую всем!!!
смотрел раз 10pb.wtf



    Дорогой пользователь! Огромная просьба, поблагодарите релизера, оцените раздачу и оставьте свои комментарий, если Вы скачали Коробка через торрент бесплатно! Внесите свою лепту в развитие PiratBit!
    Комментировать посты могут только пользователи прошедшие не сложную регистрацию
    Показать сообщения:    

    Коробка через торрент
    Скачать бесплатно Коробка
    Коробка скачать торрент
    Коробка смотреть онлайн
    Cкачать фильм Коробка бесплатно
    Коробка скачать торрент в хорошем качестве
    Коробка смотреть онлайн бесплатно в хорошем качестве


    Вы не можете начинать темы
    Вы не можете отвечать на сообщения
    Вы не можете редактировать свои сообщения
    Вы не можете удалять свои сообщения
    Вы не можете голосовать в опросах
    Вы не можете прикреплять файлы к сообщениям
    Вы можете скачивать файлы