Ссылка на приватное зеркало нашего сайта всего за 1$. Внимание количество ограничено!!!

2 сезон

iTunes

1 сезон

1

iTunes

iTunes

iTunes

1 сезон

RePack

30

ИГРА 18+

pack

ВАЖНО

!!Акция!!

Alien_RageХит недели

RePack

MK11
pack

Забери бонус

RePack

jed

!!Акция!!

Alien_Rage

RePack

fifa19

RePack

Assassins Creed: Odyssey

RePack

NEED FOR SPEED™ PAYBACK

4 сезон

9 сезон

Бесстыжие 9 сезон

Все сериалы

все сериалы на PB.wtf

RePack

FAR CRY 5
  

Бастер и Чонси: Озорные друзья / Buster & Chauncey's Silent Night (Базз Потамкин) [1998 г., мюзикл, комедия, семейный, DVDRip, Дубляж+оригинал] pb.wtf

Бастер и Чонси: Озорные друзья через торрент pb.wtf

Размер: 716 MB | Добавлен: 6 лет 3 мес. назад | Торрент скачан:17 раз
Скачать  

06-07-2014 14:02 Бастер и Чонси: Озорные друзья Скачать торрент  

Бастер и Чонси: Озорные друзья / Buster & Chauncey's Silent Night
Год выпуска: 1998
Страна: Канада, США
Жанр: мюзикл, комедия, семейный
Продолжительность: 00:47:00
Перевод: Дубляж+оригинал
Субтитры: отсутствуют

Режиссер: Базз Потамкин
Продюссер: Базз Потамкин, Ли Даннахер, Уильям Р. Ковальчук мл.
Сценарий: Джордж Тавил, Роб Лус, Лэйн Райчерт

Премьера в мире: 13 октября 1998




В ролях: Фил Хартмен,Мари Осмонд,Том Арнольд,Джудит Блейзер,Таунсенд Коулмэн,Джим Каммингс

Описание: Однажды двое озорных мышат решили, что они — величайшие в мире музыканты. Но с этим не согласилась хозяйка магазина, где они поселились, и вот на пути двух беспечных друзей появляется страшный котище Тэбби.

Он совсем не любит музыку, но еще больше ему не нравятся мыши. Но разве можно, чтобы в ночь под Рождество обошлось без музыки, танцев и волшебства?!

Качество: DVDRip
Формат: AVI
Видео кодек: XviD
Аудио кодек: AC3
Видео: MPEG4, XviD, 720x544 (4:3), 25.000 fps, 1 725 Kbps (0.176 bit/pixel)
Аудио#1: AC-3 Dolby Digital, 48.0 KHz, 2 ch, 192 Kbps, CBR[Рус.]
Аудио#2: AC-3 Dolby Digital, 48.0 KHz, 2 ch, 192 Kbps, CBR[Англ.]
скриншот   скриншот   скриншот  

Общее
Полное имя : \\Rt-n14u\elements\Download2\Complete\Buster_and_Chaunceys_Silent_Night.avi
Формат : AVI
Формат/Информация : Audio Video Interleave
Размер файла : 716 Мбайт
Продолжительность : 47 м.
Общий поток : 2126 Кбит/сек

Видео
Идентификатор : 0
Формат : MPEG-4 Visual
Профиль формата : Simple@L3
Параметр BVOP формата : Нет
Параметр QPel формата : Нет
Параметр GMC формата : Без точки перехода
Параметр матрицы формата : Default (H.263)
Идентификатор кодека : XVID
Идентификатор кодека/Подсказка : XviD
Продолжительность : 47 м.
Продолжительность оригинала : 47 м.
Битрейт : 1725 Кбит/сек
Ширина : 720 пикселей
Высота : 544 пикселя
Соотношение сторон : 4:3
Частота кадров : 25,000 кадров/сек
Цветовое пространство : YUV
Субдискретизация насыщенности : 4:2:0
Битовая глубина : 8 бит
Тип развёртки : Прогрессивная
Метод сжатия : С потерями
Бит/(Пиксели*Кадры) : 0.176
Размер потока : 581 Мбайт (81%)
Библиотека кодирования : XviD 1.1.2 (UTC 2006-11-01)

Аудио #1
Идентификатор : 1
Формат : AC-3
Формат/Информация : Audio Coding 3
Профиль формата : Dolby Digital
Расширение режима : CM (complete main)
Параметр Endianness формата : Big
Идентификатор кодека : 2000
Продолжительность : 47 м.
Вид битрейта : Постоянный
Битрейт : 192 Кбит/сек
Каналы : 2 канала
Расположение каналов : Front: L R
Частота : 48,0 КГц
Битовая глубина : 16 бит
Метод сжатия : С потерями
Размер потока : 64,7 Мбайт (9%)
Выравнивание : Соединение по промежуткам
Продолжительность промежутка : 32 мс. (0,80 видеокадр)
Время предзагрузки промежутка : 320 мс.

Аудио #2
Идентификатор : 2
Формат : AC-3
Формат/Информация : Audio Coding 3
Профиль формата : Dolby Digital
Расширение режима : CM (complete main)
Параметр Endianness формата : Big
Идентификатор кодека : 2000
Продолжительность : 47 м.
Вид битрейта : Постоянный
Битрейт : 192 Кбит/сек
Каналы : 2 канала
Расположение каналов : Front: L R
Частота : 48,0 КГц
Битовая глубина : 16 бит
Метод сжатия : С потерями
Размер потока : 64,7 Мбайт (9%)
Выравнивание : Соединение по промежуткам
Продолжительность промежутка : 32 мс. (0,80 видеокадр)
Время предзагрузки промежутка : 320 мс.

pb.wtf



Скачать Бастер и Чонси: Озорные друзья через торрент http://pic.kartinco.top/images/6/5p6hc.jpg Скачать фильм Бастер и Чонси: Озорные друзья через торрент бесплантно в хорошем качестве Описание: Однажды двое озорных мышат решили, что они — величайшие в мире музыканты. Но с этим не согласилась хозяйка магазина, где они ... 10 10 1
Info! Золотая раздача, скачанное не засчитывается.
Торрент: Зарегистрирован [2014-07-06 14:02] · скачан: 17 раз
Статус: √ проверено
Размер: 716 MB
Как cкачать? Как скачать Бастер и Чонси: Озорные друзья через торрент | qTorrent

28-11-2019 20:33  

Отключить всю рекламу на сайте

    Дорогой пользователь! Огромная просьба, поблагодарите релизера, оцените раздачу и оставьте свои комментарий, если Вы скачали Бастер и Чонси: Озорные друзья через торрент бесплатно! Внесите свою лепту в развитие PiratBit!
    Комментировать посты могут только пользователи прошедшие не сложную регистрацию
    Показать сообщения:    

    Бастер и Чонси: Озорные друзья через торрент
    Скачать бесплатно Бастер и Чонси: Озорные друзья
    Бастер и Чонси: Озорные друзья скачать торрент
    Бастер и Чонси: Озорные друзья смотреть онлайн
    Cкачать фильм Бастер и Чонси: Озорные друзья бесплатно
    Бастер и Чонси: Озорные друзья скачать торрент в хорошем качестве
    Бастер и Чонси: Озорные друзья смотреть онлайн бесплатно в хорошем качестве


    Вы не можете начинать темы
    Вы не можете отвечать на сообщения
    Вы не можете редактировать свои сообщения
    Вы не можете удалять свои сообщения
    Вы не можете голосовать в опросах
    Вы не можете прикреплять файлы к сообщениям
    Вы можете скачивать файлы