2 сезон

iTunes

MVO

1

2 сезон

iTunes

iTunes

1 сезон

RePack

30

Ultimate

ВАЖНО

ИГРА 18+

pack

RePack

MK11
pack

Легкие деньги

RePack

jed

RePack

fifa19

RePack

RDR2

RePack

NEED FOR SPEED™ PAYBACK

4 сезон

9 сезон

Бесстыжие 9 сезон

Все сериалы

все сериалы на PB.wtf

RePack

FAR CRY 5

Anonymous, доброй ночи, мы не успеваем собрать деньги на оплату серверов за декабрь и январь, помогите нам пожалуйста в это трудное время. В качестве благодарности мы отключим Вам всю рекламу на сайте (укажите свой ник в строку Ваше имя)!

×
  
Magnet ссылка

Холостяки в отрыве / Les gamins (Энтони Марсиано) [2013 г., комедия, HDRip, Профессиональный многоголосый pb.wtf

Холостяки в отрыве через торрент pb.wtf

Размер: 2.17 GB | Добавлен: 6 лет 7 мес. назад | Торрент скачан:677 раз
Скачать  

01-06-2014 17:32 Холостяки в отрыве Скачать торрент  

Холостяки в отрыве / Les gamins Год выпуска: 2013
Страна: Франция / Légende Films, PeopleForCinema Productions, Gaumont
Жанр: комедия
Продолжительность: 01:37:28
Перевод: Профессиональный многоголосый

Режиссер: Энтони Марсиано

В ролях: Ален Шаба, Макс Бублиль, Сандрин Киберлейн, Мелани Бернье, Ари Элмале, Элиза Седнауи, Элбан Ленуар, Франсуа Дюнойе, Николя Бриансон, Мелюзина Маянс, Жан-Филипп Пюмартен, Грегуар Бонне, Себастьен Кастро, Томас Соливерес

Описание: Жильберу уже пятьдесят лет, из которых тридцать он женат на Сюзанне, немного занудной дамочке, помешанной на здоровом питании. Они готовятся к встрече с Томасом, женихом своей дочери Лолы. Но Жильбера совершенно не радует предстоящая свадьба. Ему скучно, он разочарован в себе и в своей жизни. Жильбер уверен, что в его нынешнем унылом существовании виновата… Сюзанна! Ведь если бы он не женился, то жизнь его была бы совсем другой — яркой и насыщенной. Жильбер уговаривает Томаса отказаться от свадьбы с Лолой и не повторять его ошибок. И вот, два великовозрастных дитяти, забыв о своих любимых женщинах, пускаются во все тяжкие…

Качество: HDRip
Формат: AVI
Видео кодек: XviD
Аудио кодек: AC3
Видео: 720x304 (2.37:1), 24.000 fps, XviD build 50 ~3074 kbps avg, 0.58 bit/pixel
Аудио: 44.1 kHz, AC3 Dolby Digital, 2/0 (L,R) ch, ~192 kbps

скриншот   скриншот   скриншот   скриншот   скриншот  

Общее
Полное имя : H:\кино\The.Brats.2013.HDRip.avi
Формат : AVI
Формат/Информация : Audio Video Interleave
Профиль формата : OpenDML
Размер файла : 2,17 Гбайт
Продолжительность : 1 ч. 37 м.
Общий поток : 3191 Кбит/сек
Программа кодирования : VirtualDubMod 1.5.10.3 | www.virtualdub-fr.org || (build 2550/release)
Библиотека кодирования : VirtualDubMod build 2550/release

Видео
Идентификатор : 0
Формат : MPEG-4 Visual
Профиль формата : Advanced Simple@L5
Параметр BVOP формата : 2
Параметр QPel формата : Нет
Параметр GMC формата : Без точки перехода
Параметр матрицы формата : Default (H.263)
Идентификатор кодека : XVID
Идентификатор кодека/Подсказка : XviD
Продолжительность : 1 ч. 37 м.
Битрейт : 3072 Кбит/сек
Ширина : 720 пикселей
Высота : 304 пикселя
Соотношение сторон : 2,35:1
Частота кадров : 24,000 кадра/сек
Цветовое пространство : YUV
Субдискретизация насыщенности : 4:2:0
Битовая глубина : 8 бит
Тип развёртки : Прогрессивная
Метод сжатия : С потерями
Бит/(Пиксели*Кадры) : 0.585
Размер потока : 2,09 Гбайт (96%)
Библиотека кодирования : XviD 1.2.1 (UTC 2008-12-04)

Аудио
Идентификатор : 1
Формат : AC-3
Формат/Информация : Audio Coding 3
Расширение режима : CM (complete main)
Параметр Endianness формата : Big
Идентификатор кодека : 2000
Продолжительность : 55 м.
Вид битрейта : Постоянный
Битрейт : 192 Кбит/сек
Каналы : 2 канала
Расположение каналов : Front: L R
Частота : 44,1 КГц
Битовая глубина : 16 бит
Метод сжатия : С потерями
Размер потока : 76,4 Мбайт (3%)
Выравнивание : Разделение по промежуткам
Продолжительность промежутка : 73 мс. (1,75 видеокадра)
Время предзагрузки промежутка : 500 мс.

pb.wtf



Скачать Холостяки в отрыве через торрент http://i61.fastpic.ru/big/2014/0601/4b/56826003c7db1d0878c36f0366e7b54b.jpg Скачать фильм Холостяки в отрыве через торрент бесплантно в хорошем качестве Описание: Жильберу уже пятьдесят лет, из которых тридцать он женат на Сюзанне, немного занудной дамочке, помешанной на здоровом питании. ... 8.5 10 16
Торрент: Зарегистрирован [2014-06-01 17:32] · скачан: 677 раз
Статус: √ проверено
Размер: 2.17 GB
Как cкачать? Как скачать Холостяки в отрыве через торрент | UTorrent

28-11-2019 20:33  

Отключить всю рекламу на сайте

01-06-2014 21:05 Холостяки в отрыве Скачать торрент  

офигенный фильм)pb.wtf



02-06-2014 04:51 Холостяки в отрыве Скачать торрент  

Какая-то ерунда со звуком... Не понимаю, то ли сильно спешит, то ли очень отстаёт... worry В конце вообще звука нет! Что за хрень??? pb.wtf



02-06-2014 16:34 Холостяки в отрыве Скачать торрент  

GunMann писал(а):

Какая-то ерунда со звуком... Не понимаю, то ли сильно спешит, то ли очень отстаёт... worry В конце вообще звука нет! Что за хрень???

Я вообще сомневаюсь что звук от этого фильма. Не понимаю , как можно пропускать такое ???pb.wtf



02-06-2014 21:22 Холостяки в отрыве Скачать торрент  

Хозяин, тук-тук, ты хоть ради приличия отпишись что ли... pb.wtf



17-06-2014 10:34 Холостяки в отрыве Скачать торрент  

Не качайте эту версию, со звуком тут беда!pb.wtf



    Дорогой пользователь! Огромная просьба, поблагодарите релизера, оцените раздачу и оставьте свои комментарий, если Вы скачали Холостяки в отрыве через торрент бесплатно! Внесите свою лепту в развитие PiratBit!
    Комментировать посты могут только пользователи прошедшие не сложную регистрацию
    Показать сообщения:    

    Холостяки в отрыве через торрент
    Скачать бесплатно Холостяки в отрыве
    Холостяки в отрыве скачать торрент
    Холостяки в отрыве смотреть онлайн
    Cкачать фильм Холостяки в отрыве бесплатно
    Холостяки в отрыве скачать торрент в хорошем качестве
    Холостяки в отрыве смотреть онлайн бесплатно в хорошем качестве


    Вы не можете начинать темы
    Вы не можете отвечать на сообщения
    Вы не можете редактировать свои сообщения
    Вы не можете удалять свои сообщения
    Вы не можете голосовать в опросах
    Вы не можете прикреплять файлы к сообщениям
    Вы можете скачивать файлы