2 сезон

iTunes

MVO

1

2 сезон

iTunes

iTunes

1 сезон

RePack

30

Ultimate

ВАЖНО

ИГРА 18+

pack

RePack

MK11
pack

Легкие деньги

RePack

jed

RePack

fifa19

RePack

RDR2

RePack

NEED FOR SPEED™ PAYBACK

4 сезон

9 сезон

Бесстыжие 9 сезон

Все сериалы

все сериалы на PB.wtf

RePack

FAR CRY 5

Anonymous, доброй ночи, мы не успеваем собрать деньги на оплату серверов за декабрь и январь, помогите нам пожалуйста в это трудное время. В качестве благодарности мы отключим Вам всю рекламу на сайте (укажите свой ник в строку Ваше имя)!

×
  
Magnet ссылка

Тепло наших тел / Warm Bodies (Джонатан Левин / Jonathan Levine) [2013, США, Канада, ужасы, мелодрама, комедия, HDRip, Дубляж] iTunes pb.wtf

Тепло наших тел через торрент pb.wtf

Размер: 1.46 GB | Добавлен: 6 лет 6 мес. назад | Торрент скачан:308 раз
Скачать  

07-07-2014 13:58 Тепло наших тел Скачать торрент  

Тепло наших тел / Warm Bodies
«Он всё ещё мёртв, но сердце снова бьётся»

Год выпуска: 2013
Страна: США, Канада
Жанр:ужасы, мелодрама, комедия
Продолжительность:01:37:45
Перевод:Дубляж - [Лицензия / iTunes]

Субтитры: Нет
Режиссер:Джонатан Левин / Jonathan Levine

  • В ролях:

    Николас Холт (R), Тереза Палмер (Julie), Анали Типтон (Nora), Роб Кордри (M), Дэйв Франко (Perry), Джон Малкович (Grigio), Кори Хардрикт (Kevin), Дэниэл Риндресс-Кей (Soldier #1), Винсент Леклерк (Perry's Dad), Клиффорд ЛеДюк-Вайанкур (Boy at Airport), Билли Кальмо (Girl at Airport), Адам Дрисколл (Young Man at ATM)

  • Описание:
    Мир поражен чумой и стоит на грани вымирания. Покойники ходят по земле и норовят употребить в пищу живых, которые, оставшись в катастрофическом меньшинстве, с трудом держат оборону. Перемены начинаются, когда один зомби, чье имя при жизни начиналось на «Р», спасает девушку вместо того, чтобы ее съесть. Дружба, завязавшаяся между представителями враждующих сторон, грозит обоим самыми нехорошими последствиями. Но Р и Джули, сами того не подозревая, держат в руках простой и единственный ключ к спасению гибнущего мира.

  • Мировая премьера:16 января 2013


      Качество: HDRip
      Формат: AVI
      Видео кодек: XviD
      Аудио кодек:AC3
      Видео: XviD, 720x304 (2.35:1), 1743 kbps, 23,976 fps, 0,332 bpp
      Аудио: AC3 / 5.1 / 48 kHz / 384 kbps / 16 bit


    Код:

    General
    Complete name                            : D:\Торенты\Тепло наших тел.avi
    Format                                   : AVI
    Format/Info                              : Audio Video Interleave
    File size                                : 1.46 GiB
    Duration                                 : 1h 37mn
    Overall bit rate                         : 2 137 Kbps
    Writing application                      : VirtualDubMod 1.5.10.2 (build 2540/release)
    Writing library                          : VirtualDubMod build 2540/release

    Video
    ID                                       : 0
    Format                                   : MPEG-4 Visual
    Format profile                           : Advanced Simple@L5
    Format settings, BVOP                    : 2
    Format settings, QPel                    : No
    Format settings, GMC                     : No warppoints
    Format settings, Matrix                  : Default (MPEG)
    Codec ID                                 : XVID
    Codec ID/Hint                            : XviD
    Duration                                 : 1h 37mn
    Bit rate                                 : 1 744 Kbps
    Width                                    : 720 pixels
    Height                                   : 304 pixels
    Display aspect ratio                     : 2.35:1
    Frame rate                               : 23.976 fps
    Color space                              : YUV
    Chroma subsampling                       : 4:2:0
    Bit depth                                : 8 bits
    Scan type                                : Progressive
    Compression mode                         : Lossy
    Bits/(Pixel*Frame)                       : 0.332
    Stream size                              : 1.19 GiB (82%)
    Writing library                          : XviD 1.2.1 (UTC 2008-12-04)

    Audio
    ID                                       : 1
    Format                                   : AC-3
    Format/Info                              : Audio Coding 3
    Mode extension                           : CM (complete main)
    Codec ID                                 : 2000
    Duration                                 : 1h 37mn
    Bit rate mode                            : Constant
    Bit rate                                 : 384 Kbps
    Channel(s)                               : 6 channels
    Channel positions                        : Front: L C R, Side: L R, LFE
    Sampling rate                            : 48.0 KHz
    Bit depth                                : 16 bits
    Compression mode                         : Lossy
    Stream size                              : 269 MiB (18%)
    Alignment                                : Split accross interleaves
    Interleave, duration                     : 42 ms (1.00 video frame)
    Interleave, preload duration             : 500 ms

    Скриншоты:

    Каталог Новинок (Фильмы-трейлеры, Игры, Сериалы, Мультфильмы)

    © Оформление by Raven
    pb.wtf



  • Скачать Тепло наших тел через торрент http://i64.fastpic.ru/big/2014/0707/b3/5b8d4f56f1a9c608b81246f8072bb0b3.jpg Скачать фильм Тепло наших тел через торрент бесплантно в хорошем качестве Описание:Мир поражен чумой и стоит на грани вымирания. Покойники ходят по земле и норовят употребить в пищу живых, которые, оставшись в ... 10 10 17
    Торрент: Зарегистрирован [2014-07-07 14:00] · скачан: 308 раз
    Статус: √ проверено
    Размер: 1.46 GB
    Как cкачать? Как скачать Тепло наших тел через торрент | UTorrent

    % Раздел Тема Автор DL S | L
    Фильмы [HD 720p, 1080p] (Хороший звук DUB, MVO) [ 4.89 GB ] Тепло наших тел / Warm Bodies [2013 BDRip 720p -=DANTE=- Скачать
    1 | 2

    28-11-2019 20:33  

    Отключить всю рекламу на сайте

    07-07-2014 15:06 Тепло наших тел Скачать торрент  

    Отличный фильм. yespb.wtf



    08-07-2014 15:51 Тепло наших тел Скачать торрент  

    Цитата:

    Дружба, завязавшаяся между представителями враждующих сторон

    Цитата:

    Р и Джули

    Намёк на Ромео и Джульету? :)pb.wtf



      Дорогой пользователь! Огромная просьба, поблагодарите релизера, оцените раздачу и оставьте свои комментарий, если Вы скачали Тепло наших тел через торрент бесплатно! Внесите свою лепту в развитие PiratBit!
      Комментировать посты могут только пользователи прошедшие не сложную регистрацию
      Показать сообщения:    

      Тепло наших тел через торрент
      Скачать бесплатно Тепло наших тел
      Тепло наших тел скачать торрент
      Тепло наших тел смотреть онлайн
      Cкачать фильм Тепло наших тел бесплатно
      Тепло наших тел скачать торрент в хорошем качестве
      Тепло наших тел смотреть онлайн бесплатно в хорошем качестве


      Вы не можете начинать темы
      Вы не можете отвечать на сообщения
      Вы не можете редактировать свои сообщения
      Вы не можете удалять свои сообщения
      Вы не можете голосовать в опросах
      Вы не можете прикреплять файлы к сообщениям
      Вы можете скачивать файлы