2 сезон

iTunes

MVO

1

2 сезон

iTunes

iTunes

1 сезон

RePack

30

Новинка

ВАЖНО

ИГРА 18+

pack

RePack

MK11
pack

Легкие деньги

RePack

jed

RePack

fifa19

RePack

RDR2

RePack

NEED FOR SPEED™ PAYBACK

4 сезон

9 сезон

Бесстыжие 9 сезон

Все сериалы

все сериалы на PB.wtf

RePack

FAR CRY 5

Anonymous, доброе утро, мы не успеваем собрать деньги на оплату серверов за декабрь и январь, помогите нам пожалуйста в это трудное время. В качестве благодарности мы отключим Вам всю рекламу на сайте (укажите свой ник в строку Ваше имя)!

×
  
Magnet ссылка

Вселенная (6 сезон) / The Universe [2011 г., Документальный, BDRip 720p, Дубляж + Оригинал] pb.wtf

Вселенная через торрент pb.wtf

Размер: 8.06 GB | Добавлен: 6 лет 6 мес. назад | Торрент скачан:128 раз
Скачать  

07-07-2014 21:17 Вселенная Скачать торрент  


Вселенная (6 сезон) / The Universe
Год выпуска: 2011
Страна: США
Студия: Flight 33 Productions
Жанр: Документальный, Научнопознавательный
Продолжительность: 7 серий / 45 мин.
Перевод: Дубляж + Оригинал
Режиссер: Лаура Верклан, Колин Кэмпбелл, Тони Лонг, Люк Эллис, Луиз Сай, Савас Георгалис, Джеймс Грант Голдин, Колин Кэмпбелл, Дуглас Коэн, Эми Хаггинс, Эндрю Нок, Роберт Бимер, Дэниэл Снайдер
Продюссер: Карл Х. Линдаль, Дуглас Коэн, Луис Тарантино, Брайан Томпсон, Винсент Лопез, Бет Дитрих, Ребекка Грэхэм, Эми Хаггинс, Тони Лонг, Эндрю Нок, Райан Т. Херст, Дэниэл Снайдер, Стюарт Картер, Люк Эллис
Сценарий: Роберт Бимер, Мэттью П. Хикки, Эми Хаггинс, Тони Лонг, Эндрю Нок, Гэбриел Ротелло, Дэниэл Снайдер, Лаура Верклан, Колин Кэмпбелл, Дуглас Коэн, Сэм Долан, Савас Георгалис, Джеймс Грант Голдин, Бриттани Грэхэм, Ребекка Грэхэм
Премьера в мире: 29 мая 2007 год

В ролях:


Нил Тайсон, Эми Мейнзер, Доктор Кевин Р. Грейзер, Мичио Каку, Лоуренс Краусс, Шон Кэрролл, Мики Харт, Тейн Х. Эллисон мл., Джералд Бродин, Брайан Грин, Рэймонд Курцвайл, Глен МакДугал, Макси Х. Сантильян мл., Ванна Бонта, Альберт Эйнштейн
Описание: В этом сериале с помощью современной компьютерной графики и, основываясь на передовых исследованиях в области космоса, создатели фильма смогли воссоздать то, что происходит на других планетах, в других галактиках, вообразить какие формы жизни могли бы развиться в других атмосферах. Вы сможете увидеть космические бедствия, параллельные вселенные, скорость света и узнать многое другое о тайнах космоса.
Качество: BDRip 720p
Формат: MKV
Видео кодек: AVC
Аудио кодек: AC3
Видео: 3113-3977 Кбит/сек, 1280*720 (16:9), в 23.976 кадров/сек, AVC (High 4:2:2@L4.1)(CABAC / 3 Ref Frames)
Аудио#1: Russia, 192 Кбит/сек, 48,0 КГц, 16 бит, 2 канала, AC-3
Аудио#2: English, 192 Кбит/сек, 48,0 КГц, 16 бит, 2 каналов, AC-3

Уникальный идентификатор : 200960959644112215717684646792906351458 (0x972FAC489F7D045D1F6E2CAF133F2362)
Полное имя : C:\Users\El\Videos\Вселенная(6 сезон)\S06E01 Катастрофы, которые изменили планеты.Catastrophes.that.Changed.the.Planets.720p.ENG.RUS.mkv
Формат : Matroska
Версия формата : Version 2
Размер файла : 1,10 Гбайт
Продолжительность : 44 м.
Общий поток : 3578 Кбит/сек
Дата кодирования : UTC 2014-05-02 20:40:33
Программа кодирования : XviD4PSP 6.0 / 54.29.105
Библиотека кодирования : XviD4PSP 6.0 / 54.29.105

Видео
Идентификатор : 1
Формат : AVC
Формат/Информация : Advanced Video Codec
Профиль формата : High 4:2:2@L4.1
Параметр CABAC формата : Да
Параметр ReFrames формата : 3 кадра
Идентификатор кодека : V_MPEG4/ISO/AVC
Продолжительность : 44 м.
Битрейт : 3123 Кбит/сек
Ширина : 1280 пикселей
Высота : 720 пикселей
Соотношение сторон : 16:9
Режим частоты кадров : Постоянный
Частота кадров : 23,976 кадра/сек
Цветовое пространство : YUV
Субдискретизация насыщенности : 4:2:2
Битовая глубина : 8 бит
Тип развёртки : Прогрессивная
Бит/(Пиксели*Кадры) : 0.141
Размер потока : 984 Мбайт (87%)
Библиотека кодирования : x264 core 128 r2216M 198a7ea
Настройки программы : cabac=1 / ref=3 / deblock=1:0:0 / analyse=0x3:0x133 / me=hex / subme=7 / psy=1 / psy_rd=1.00:0.20 / mixed_ref=1 / me_range=16 / chroma_me=1 / trellis=1 / 8x8dct=1 / cqm=0 / deadzone=21,11 / fast_pskip=1 / chroma_qp_offset=-3 / threads=4 / lookahead_threads=1 / sliced_threads=0 / nr=0 / decimate=1 / interlaced=0 / bluray_compat=0 / constrained_intra=0 / bframes=3 / b_pyramid=1 / b_adapt=2 / b_bias=0 / direct=3 / weightb=1 / open_gop=0 / weightp=2 / keyint=230 / keyint_min=23 / scenecut=40 / intra_refresh=0 / rc_lookahead=40 / rc=crf / mbtree=1 / crf=21.0 / qcomp=0.60 / qpmin=10 / qpmax=51 / qpstep=4 / ip_ratio=1.40 / aq=1:1.00
Default : Да
Forced : Нет

Аудио #1
Идентификатор : 2
Формат : AC-3
Формат/Информация : Audio Coding 3
Расширение режима : CM (complete main)
Параметр Endianness формата : Big
Идентификатор кодека : A_AC3
Продолжительность : 44 м.
Вид битрейта : Постоянный
Битрейт : 192 Кбит/сек
Каналы : 2 канала
Расположение каналов : Front: L R
Частота : 48,0 КГц
Битовая глубина : 16 бит
Метод сжатия : С потерями
Задержка видео : 27 мс.
Размер потока : 60,5 Мбайт (5%)
Язык : Russian
Default : Да
Forced : Нет

Аудио #2
Идентификатор : 3
Формат : AC-3
Формат/Информация : Audio Coding 3
Расширение режима : CM (complete main)
Параметр Endianness формата : Big
Идентификатор кодека : A_AC3
Продолжительность : 44 м.
Вид битрейта : Постоянный
Битрейт : 192 Кбит/сек
Каналы : 2 канала
Расположение каналов : Front: L R
Частота : 48,0 КГц
Битовая глубина : 16 бит
Метод сжатия : С потерями
Задержка видео : 27 мс.
Размер потока : 60,5 Мбайт (5%)
Язык : English
Default : Да
Forced : Нет
Уникальный идентификатор : 236163597054767100233888726582249810430 (0xB1AB744F3EF8A70772B905200CF669FE)
Полное имя : C:\Users\El\Videos\Вселенная(6 сезон)\S06E02 Немезида - Злой Близнец Солнца.Nemesis.The.Sun's.Evil.Twin.720p.ENG.RUS.mkv
Формат : Matroska
Версия формата : Version 2
Размер файла : 1,22 Гбайт
Продолжительность : 44 м.
Общий поток : 3977 Кбит/сек
Дата кодирования : UTC 2014-05-02 21:07:42
Программа кодирования : XviD4PSP 6.0 / 54.29.105
Библиотека кодирования : XviD4PSP 6.0 / 54.29.105

Видео
Идентификатор : 1
Формат : AVC
Формат/Информация : Advanced Video Codec
Профиль формата : High 4:2:2@L4.1
Параметр CABAC формата : Да
Параметр ReFrames формата : 3 кадра
Идентификатор кодека : V_MPEG4/ISO/AVC
Продолжительность : 44 м.
Битрейт : 3514 Кбит/сек
Ширина : 1280 пикселей
Высота : 720 пикселей
Соотношение сторон : 16:9
Режим частоты кадров : Постоянный
Частота кадров : 23,976 кадра/сек
Цветовое пространство : YUV
Субдискретизация насыщенности : 4:2:2
Битовая глубина : 8 бит
Тип развёртки : Прогрессивная
Бит/(Пиксели*Кадры) : 0.159
Размер потока : 1,08 Гбайт (88%)
Библиотека кодирования : x264 core 128 r2216M 198a7ea
Настройки программы : cabac=1 / ref=3 / deblock=1:0:0 / analyse=0x3:0x133 / me=hex / subme=7 / psy=1 / psy_rd=1.00:0.20 / mixed_ref=1 / me_range=16 / chroma_me=1 / trellis=1 / 8x8dct=1 / cqm=0 / deadzone=21,11 / fast_pskip=1 / chroma_qp_offset=-3 / threads=4 / lookahead_threads=1 / sliced_threads=0 / nr=0 / decimate=1 / interlaced=0 / bluray_compat=0 / constrained_intra=0 / bframes=3 / b_pyramid=1 / b_adapt=2 / b_bias=0 / direct=3 / weightb=1 / open_gop=0 / weightp=2 / keyint=230 / keyint_min=23 / scenecut=40 / intra_refresh=0 / rc_lookahead=40 / rc=crf / mbtree=1 / crf=21.0 / qcomp=0.60 / qpmin=10 / qpmax=51 / qpstep=4 / ip_ratio=1.40 / aq=1:1.00
Default : Да
Forced : Нет

Аудио #1
Идентификатор : 2
Формат : AC-3
Формат/Информация : Audio Coding 3
Расширение режима : CM (complete main)
Параметр Endianness формата : Big
Идентификатор кодека : A_AC3
Продолжительность : 44 м.
Вид битрейта : Постоянный
Битрейт : 192 Кбит/сек
Каналы : 2 канала
Расположение каналов : Front: L R
Частота : 48,0 КГц
Битовая глубина : 16 бит
Метод сжатия : С потерями
Задержка видео : 27 мс.
Размер потока : 60,5 Мбайт (5%)
Язык : Russian
Default : Да
Forced : Нет

Аудио #2
Идентификатор : 3
Формат : AC-3
Формат/Информация : Audio Coding 3
Расширение режима : CM (complete main)
Параметр Endianness формата : Big
Идентификатор кодека : A_AC3
Продолжительность : 44 м.
Вид битрейта : Постоянный
Битрейт : 192 Кбит/сек
Каналы : 2 канала
Расположение каналов : Front: L R
Частота : 48,0 КГц
Битовая глубина : 16 бит
Метод сжатия : С потерями
Задержка видео : 27 мс.
Размер потока : 60,5 Мбайт (5%)
Язык : English
Default : Да
Forced : Нет
Уникальный идентификатор : 135541104682020804317085429694240761834 (0x65F844688BBC042B2874114ECBD1A7EA)
Полное имя : C:\Users\El\Videos\Вселенная(6 сезон)\S06E03 Как создалась Солнечная система.How.the.Solar.System.was.Made.720p.ENG.RUS.mkv
Формат : Matroska
Версия формата : Version 2
Размер файла : 1,30 Гбайт
Продолжительность : 44 м.
Общий поток : 4234 Кбит/сек
Дата кодирования : UTC 2014-05-02 21:14:08
Программа кодирования : XviD4PSP 6.0 / 54.14.100
Библиотека кодирования : XviD4PSP 6.0 / 54.14.100

Видео
Идентификатор : 1
Формат : AVC
Формат/Информация : Advanced Video Codec
Профиль формата : High 4:2:2@L4.1
Параметр CABAC формата : Да
Параметр ReFrames формата : 3 кадра
Идентификатор кодека : V_MPEG4/ISO/AVC
Продолжительность : 44 м.
Битрейт : 3510 Кбит/сек
Ширина : 1280 пикселей
Высота : 720 пикселей
Соотношение сторон : 16:9
Режим частоты кадров : Постоянный
Частота кадров : 23,976 кадра/сек
Цветовое пространство : YUV
Субдискретизация насыщенности : 4:2:2
Битовая глубина : 8 бит
Тип развёртки : Прогрессивная
Бит/(Пиксели*Кадры) : 0.159
Размер потока : 1,08 Гбайт (83%)
Библиотека кодирования : x264 core 125 r2200M 999b753
Настройки программы : cabac=1 / ref=3 / deblock=1:0:0 / analyse=0x3:0x133 / me=hex / subme=7 / psy=1 / psy_rd=1.00:0.20 / mixed_ref=1 / me_range=16 / chroma_me=1 / trellis=1 / 8x8dct=1 / cqm=0 / deadzone=21,11 / fast_pskip=1 / chroma_qp_offset=-3 / threads=4 / lookahead_threads=1 / sliced_threads=0 / nr=0 / decimate=1 / interlaced=0 / bluray_compat=0 / constrained_intra=0 / bframes=3 / b_pyramid=1 / b_adapt=2 / b_bias=0 / direct=3 / weightb=1 / open_gop=0 / weightp=2 / keyint=230 / keyint_min=23 / scenecut=40 / intra_refresh=0 / rc_lookahead=40 / rc=crf / mbtree=1 / crf=21.0 / qcomp=0.60 / qpmin=10 / qpmax=51 / qpstep=4 / ip_ratio=1.40 / aq=1:1.00
Default : Да
Forced : Нет

Аудио #1
Идентификатор : 2
Формат : AC-3
Формат/Информация : Audio Coding 3
Расширение режима : CM (complete main)
Параметр Endianness формата : Big
Идентификатор кодека : A_AC3
Продолжительность : 44 м.
Вид битрейта : Постоянный
Битрейт : 448 Кбит/сек
Каналы : 6 каналов
Расположение каналов : Front: L C R, Side: L R, LFE
Частота : 48,0 КГц
Битовая глубина : 16 бит
Метод сжатия : С потерями
Задержка видео : 27 мс.
Размер потока : 141 Мбайт (11%)
Язык : Russian
Default : Да
Forced : Нет

Аудио #2
Идентификатор : 3
Формат : AC-3
Формат/Информация : Audio Coding 3
Расширение режима : CM (complete main)
Параметр Endianness формата : Big
Идентификатор кодека : A_AC3
Продолжительность : 44 м.
Вид битрейта : Постоянный
Битрейт : 192 Кбит/сек
Каналы : 2 канала
Расположение каналов : Front: L R
Частота : 48,0 КГц
Битовая глубина : 16 бит
Метод сжатия : С потерями
Задержка видео : 27 мс.
Размер потока : 60,5 Мбайт (5%)
Язык : English
Default : Да
Forced : Нет
Уникальный идентификатор : 86938042139852853091049836877292203657 (0x4167A869EDEC6A793A17B6EBCF636E89)
Полное имя : C:\Users\El\Videos\Вселенная(6 сезон)\S06E04 Аварийная посадка на Марс.Crash.Landing.on.Mars.720p.ENG.RUS.mkv
Формат : Matroska
Версия формата : Version 2
Размер файла : 1,08 Гбайт
Продолжительность : 44 м.
Общий поток : 3524 Кбит/сек
Дата кодирования : UTC 2014-05-03 04:52:34
Программа кодирования : XviD4PSP 6.0 / 54.14.100
Библиотека кодирования : XviD4PSP 6.0 / 54.14.100

Видео
Идентификатор : 1
Формат : AVC
Формат/Информация : Advanced Video Codec
Профиль формата : High@L4.1
Параметр CABAC формата : Да
Параметр ReFrames формата : 3 кадра
Идентификатор кодека : V_MPEG4/ISO/AVC
Продолжительность : 44 м.
Битрейт : 3070 Кбит/сек
Ширина : 1280 пикселей
Высота : 720 пикселей
Соотношение сторон : 16:9
Режим частоты кадров : Постоянный
Частота кадров : 23,976 кадра/сек
Цветовое пространство : YUV
Субдискретизация насыщенности : 4:2:0
Битовая глубина : 8 бит
Тип развёртки : Прогрессивная
Бит/(Пиксели*Кадры) : 0.139
Размер потока : 967 Мбайт (87%)
Библиотека кодирования : x264 core 125 r2200M 999b753
Настройки программы : cabac=1 / ref=3 / deblock=1:0:0 / analyse=0x3:0x133 / me=hex / subme=7 / psy=1 / psy_rd=1.00:0.20 / mixed_ref=1 / me_range=16 / chroma_me=1 / trellis=1 / 8x8dct=1 / cqm=0 / deadzone=21,11 / fast_pskip=1 / chroma_qp_offset=-3 / threads=4 / lookahead_threads=1 / sliced_threads=0 / nr=0 / decimate=1 / interlaced=0 / bluray_compat=0 / constrained_intra=0 / bframes=3 / b_pyramid=1 / b_adapt=2 / b_bias=0 / direct=3 / weightb=1 / open_gop=0 / weightp=2 / keyint=230 / keyint_min=23 / scenecut=40 / intra_refresh=0 / rc_lookahead=40 / rc=crf / mbtree=1 / crf=21.0 / qcomp=0.60 / qpmin=10 / qpmax=51 / qpstep=4 / ip_ratio=1.40 / aq=1:1.00
Default : Да
Forced : Нет

Аудио #1
Идентификатор : 2
Формат : AC-3
Формат/Информация : Audio Coding 3
Расширение режима : CM (complete main)
Параметр Endianness формата : Big
Идентификатор кодека : A_AC3
Продолжительность : 44 м.
Вид битрейта : Постоянный
Битрейт : 192 Кбит/сек
Каналы : 2 канала
Расположение каналов : Front: L R
Частота : 48,0 КГц
Битовая глубина : 16 бит
Метод сжатия : С потерями
Задержка видео : 27 мс.
Размер потока : 60,5 Мбайт (5%)
Язык : Russian
Default : Да
Forced : Нет

Аудио #2
Идентификатор : 3
Формат : AC-3
Формат/Информация : Audio Coding 3
Расширение режима : CM (complete main)
Параметр Endianness формата : Big
Идентификатор кодека : A_AC3
Продолжительность : 44 м.
Вид битрейта : Постоянный
Битрейт : 192 Кбит/сек
Каналы : 2 канала
Расположение каналов : Front: L R
Частота : 48,0 КГц
Битовая глубина : 16 бит
Метод сжатия : С потерями
Задержка видео : 27 мс.
Размер потока : 60,5 Мбайт (5%)
Язык : English
Default : Да
Forced : Нет
Уникальный идентификатор : 147336602769922021998231800854368684930 (0x6ED7FF5D55123652E0159A35343F0B82)
Полное имя : C:\Users\El\Videos\Вселенная(6 сезон)\S06E05 Худшие дни на планете Земля.Worst.Days.on.Planet.Earth.720p.ENG.RUS.mkv
Формат : Matroska
Версия формата : Version 2
Размер файла : 1,16 Гбайт
Продолжительность : 43 м.
Общий поток : 3803 Кбит/сек
Дата кодирования : UTC 2014-05-03 05:33:07
Программа кодирования : XviD4PSP 6.0 / 54.14.100
Библиотека кодирования : XviD4PSP 6.0 / 54.14.100

Видео
Идентификатор : 1
Формат : AVC
Формат/Информация : Advanced Video Codec
Профиль формата : High@L4.1
Параметр CABAC формата : Да
Параметр ReFrames формата : 3 кадра
Идентификатор кодека : V_MPEG4/ISO/AVC
Продолжительность : 43 м.
Битрейт : 3343 Кбит/сек
Ширина : 1280 пикселей
Высота : 720 пикселей
Соотношение сторон : 16:9
Режим частоты кадров : Постоянный
Частота кадров : 23,976 кадра/сек
Цветовое пространство : YUV
Субдискретизация насыщенности : 4:2:0
Битовая глубина : 8 бит
Тип развёртки : Прогрессивная
Бит/(Пиксели*Кадры) : 0.151
Размер потока : 1,02 Гбайт (88%)
Библиотека кодирования : x264 core 125 r2200M 999b753
Настройки программы : cabac=1 / ref=3 / deblock=1:0:0 / analyse=0x3:0x133 / me=hex / subme=7 / psy=1 / psy_rd=1.00:0.20 / mixed_ref=1 / me_range=16 / chroma_me=1 / trellis=1 / 8x8dct=1 / cqm=0 / deadzone=21,11 / fast_pskip=1 / chroma_qp_offset=-3 / threads=4 / lookahead_threads=1 / sliced_threads=0 / nr=0 / decimate=1 / interlaced=0 / bluray_compat=0 / constrained_intra=0 / bframes=3 / b_pyramid=1 / b_adapt=2 / b_bias=0 / direct=3 / weightb=1 / open_gop=0 / weightp=2 / keyint=230 / keyint_min=23 / scenecut=40 / intra_refresh=0 / rc_lookahead=40 / rc=crf / mbtree=1 / crf=21.0 / qcomp=0.60 / qpmin=10 / qpmax=51 / qpstep=4 / ip_ratio=1.40 / aq=1:1.00
Default : Да
Forced : Нет

Аудио #1
Идентификатор : 2
Формат : AC-3
Формат/Информация : Audio Coding 3
Расширение режима : CM (complete main)
Параметр Endianness формата : Big
Идентификатор кодека : A_AC3
Продолжительность : 43 м.
Вид битрейта : Постоянный
Битрейт : 192 Кбит/сек
Каналы : 2 канала
Расположение каналов : Front: L R
Частота : 48,0 КГц
Битовая глубина : 16 бит
Метод сжатия : С потерями
Задержка видео : 27 мс.
Размер потока : 60,0 Мбайт (5%)
Язык : Russian
Default : Да
Forced : Нет

Аудио #2
Идентификатор : 3
Формат : AC-3
Формат/Информация : Audio Coding 3
Расширение режима : CM (complete main)
Параметр Endianness формата : Big
Идентификатор кодека : A_AC3
Продолжительность : 43 м.
Вид битрейта : Постоянный
Битрейт : 192 Кбит/сек
Каналы : 2 канала
Расположение каналов : Front: L R
Частота : 48,0 КГц
Битовая глубина : 16 бит
Метод сжатия : С потерями
Задержка видео : 27 мс.
Размер потока : 60,0 Мбайт (5%)
Язык : English
Default : Да
Forced : Нет
Уникальный идентификатор : 225332130046784989324131980520700964012 (0xA98563C1586A199D36C4C60DC056ECAC)
Полное имя : C:\Users\El\Videos\Вселенная(6 сезон)\S06E06 НЛО.Подлинная история.UFO.The.Real.Deal.720p.ENG.RUS.mkv
Формат : Matroska
Версия формата : Version 2
Размер файла : 1,10 Гбайт
Продолжительность : 44 м.
Общий поток : 3564 Кбит/сек
Дата кодирования : UTC 2014-05-03 05:15:04
Программа кодирования : XviD4PSP 6.0 / 54.14.100
Библиотека кодирования : XviD4PSP 6.0 / 54.14.100

Видео
Идентификатор : 1
Формат : AVC
Формат/Информация : Advanced Video Codec
Профиль формата : High@L4.1
Параметр CABAC формата : Да
Параметр ReFrames формата : 3 кадра
Идентификатор кодека : V_MPEG4/ISO/AVC
Продолжительность : 44 м.
Битрейт : 3109 Кбит/сек
Ширина : 1280 пикселей
Высота : 720 пикселей
Соотношение сторон : 16:9
Режим частоты кадров : Постоянный
Частота кадров : 23,976 кадра/сек
Цветовое пространство : YUV
Субдискретизация насыщенности : 4:2:0
Битовая глубина : 8 бит
Тип развёртки : Прогрессивная
Бит/(Пиксели*Кадры) : 0.141
Размер потока : 979 Мбайт (87%)
Библиотека кодирования : x264 core 125 r2200M 999b753
Настройки программы : cabac=1 / ref=3 / deblock=1:0:0 / analyse=0x3:0x133 / me=hex / subme=7 / psy=1 / psy_rd=1.00:0.20 / mixed_ref=1 / me_range=16 / chroma_me=1 / trellis=1 / 8x8dct=1 / cqm=0 / deadzone=21,11 / fast_pskip=1 / chroma_qp_offset=-3 / threads=4 / lookahead_threads=1 / sliced_threads=0 / nr=0 / decimate=1 / interlaced=0 / bluray_compat=0 / constrained_intra=0 / bframes=3 / b_pyramid=1 / b_adapt=2 / b_bias=0 / direct=3 / weightb=1 / open_gop=0 / weightp=2 / keyint=230 / keyint_min=23 / scenecut=40 / intra_refresh=0 / rc_lookahead=40 / rc=crf / mbtree=1 / crf=21.0 / qcomp=0.60 / qpmin=10 / qpmax=51 / qpstep=4 / ip_ratio=1.40 / aq=1:1.00
Default : Да
Forced : Нет

Аудио #1
Идентификатор : 2
Формат : AC-3
Формат/Информация : Audio Coding 3
Расширение режима : CM (complete main)
Параметр Endianness формата : Big
Идентификатор кодека : A_AC3
Продолжительность : 44 м.
Вид битрейта : Постоянный
Битрейт : 192 Кбит/сек
Каналы : 2 канала
Расположение каналов : Front: L R
Частота : 48,0 КГц
Битовая глубина : 16 бит
Метод сжатия : С потерями
Задержка видео : 27 мс.
Размер потока : 60,5 Мбайт (5%)
Язык : Russian
Default : Да
Forced : Нет

Аудио #2
Идентификатор : 3
Формат : AC-3
Формат/Информация : Audio Coding 3
Расширение режима : CM (complete main)
Параметр Endianness формата : Big
Идентификатор кодека : A_AC3
Продолжительность : 44 м.
Вид битрейта : Постоянный
Битрейт : 192 Кбит/сек
Каналы : 2 канала
Расположение каналов : Front: L R
Частота : 48,0 КГц
Битовая глубина : 16 бит
Метод сжатия : С потерями
Задержка видео : 27 мс.
Размер потока : 60,5 Мбайт (5%)
Язык : English
Default : Да
Forced : Нет
Уникальный идентификатор : 43285006166682405894499053763442754170 (0x209063925AB5EECE3F8FAE09922BC27A)
Полное имя : C:\Users\El\Videos\Вселенная(6 сезон)\S06E07.Бог и Вселенная.God.and.the.Universe.720p.ENG.RUS.mkv
Формат : Matroska
Версия формата : Version 2
Размер файла : 1,09 Гбайт
Продолжительность : 44 м.
Общий поток : 3549 Кбит/сек
Дата кодирования : UTC 2014-05-03 05:24:56
Программа кодирования : XviD4PSP 6.0 / 54.14.100
Библиотека кодирования : XviD4PSP 6.0 / 54.14.100

Видео
Идентификатор : 1
Формат : AVC
Формат/Информация : Advanced Video Codec
Профиль формата : High@L4.1
Параметр CABAC формата : Да
Параметр ReFrames формата : 3 кадра
Идентификатор кодека : V_MPEG4/ISO/AVC
Продолжительность : 44 м.
Битрейт : 3095 Кбит/сек
Ширина : 1280 пикселей
Высота : 720 пикселей
Соотношение сторон : 16:9
Режим частоты кадров : Постоянный
Частота кадров : 23,976 кадра/сек
Цветовое пространство : YUV
Субдискретизация насыщенности : 4:2:0
Битовая глубина : 8 бит
Тип развёртки : Прогрессивная
Бит/(Пиксели*Кадры) : 0.140
Размер потока : 975 Мбайт (87%)
Библиотека кодирования : x264 core 125 r2200M 999b753
Настройки программы : cabac=1 / ref=3 / deblock=1:0:0 / analyse=0x3:0x133 / me=hex / subme=7 / psy=1 / psy_rd=1.00:0.20 / mixed_ref=1 / me_range=16 / chroma_me=1 / trellis=1 / 8x8dct=1 / cqm=0 / deadzone=21,11 / fast_pskip=1 / chroma_qp_offset=-3 / threads=4 / lookahead_threads=1 / sliced_threads=0 / nr=0 / decimate=1 / interlaced=0 / bluray_compat=0 / constrained_intra=0 / bframes=3 / b_pyramid=1 / b_adapt=2 / b_bias=0 / direct=3 / weightb=1 / open_gop=0 / weightp=2 / keyint=230 / keyint_min=23 / scenecut=40 / intra_refresh=0 / rc_lookahead=40 / rc=crf / mbtree=1 / crf=21.0 / qcomp=0.60 / qpmin=10 / qpmax=51 / qpstep=4 / ip_ratio=1.40 / aq=1:1.00
Default : Да
Forced : Нет

Аудио #1
Идентификатор : 2
Формат : AC-3
Формат/Информация : Audio Coding 3
Расширение режима : CM (complete main)
Параметр Endianness формата : Big
Идентификатор кодека : A_AC3
Продолжительность : 44 м.
Вид битрейта : Постоянный
Битрейт : 192 Кбит/сек
Каналы : 2 канала
Расположение каналов : Front: L R
Частота : 44,1 КГц
Битовая глубина : 16 бит
Метод сжатия : С потерями
Задержка видео : 29 мс.
Размер потока : 60,5 Мбайт (5%)
Язык : Russian
Default : Да
Forced : Нет

Аудио #2
Идентификатор : 3
Формат : AC-3
Формат/Информация : Audio Coding 3
Расширение режима : CM (complete main)
Параметр Endianness формата : Big
Идентификатор кодека : A_AC3
Продолжительность : 44 м.
Вид битрейта : Постоянный
Битрейт : 192 Кбит/сек
Каналы : 2 канала
Расположение каналов : Front: L R
Частота : 48,0 КГц
Битовая глубина : 16 бит
Метод сжатия : С потерями
Задержка видео : 27 мс.
Размер потока : 60,5 Мбайт (5%)
Язык : English
Default : Да
Forced : Нет
pb.wtf



Скачать Вселенная через торрент http://pic.kartinco.top/images/6/7fzso.jpg Скачать фильм Вселенная через торрент бесплантно в хорошем качестве Описание: В этом сериале с помощью современной компьютерной графики и, основываясь на передовых исследованиях в области космоса, создатели ... 9.9 10 8
Info! Золотая раздача, скачанное не засчитывается.
Торрент: Зарегистрирован [2014-07-07 21:17] · скачан: 128 раз
Статус: √ проверено
Размер: 8.06 GB
Как cкачать? Как скачать Вселенная через торрент | UTorrent

% Раздел Тема Автор DL S | L
Фильмы [HD 720p, 1080p] (Хороший звук DUB, MVO) [ 8.37 GB ] Повелители вселенной / Властелины вселенной / Masters of the Universe [1987 BDRip 720p] [GER Transfer] MVO DVO 3xAVO - KORSAR lesnik125 Скачать
1 | 0
Научно-популярные фильмы [ 31.32 GB ] Вселенная: Семь чудес Солнечной системы 3D / Universe: 7 Wonders of The Solar System 3D Blu-Ray [2010 Документальный 1080p] Anonymous Скачать
1 | 0
Видео для КПК и Смартфонов [ 461 MB ] Путешествие на край Вселенной / Journey to the Edge of the Universe [2008 Документальный HDRip / КПК] Dub Cтрана Скачать
1 | 0
Фильмы до 2000 г. [ 1.47 GB ] Властелины вселенной / Masters of the Universe [1987 DVDRip] [DVO] + 2X[AVO] killermax2013 Скачать
1 | 0
Ultra HD (UHD: 2K, 4K, 8K) — видео сверхвысокой чёткости [ 59.29 GB ] Через вселенную / Across the universe [2007 мюзикл UHD Blu-ray 2160p] MVO [] bober100 Скачать
1 | 0
Фильмы [HD 720p, 1080p] (Хороший звук DUB, MVO) [ 11.54 GB ] Через Вселенную / Across the Universe [2007 мюзикл BDRip 1080p от еnvy / NNNB] MVO еnvy Скачать
7 | 0
Фильмы [HD 720p, 1080p] (Хороший звук DUB, MVO) [ 13.47 GB ] Через Вселенную / Across the Universe [2007 мюзикл BDRip 1080p by msltel] MVO msltel Скачать
1 | 0

28-11-2019 20:33  

Отключить всю рекламу на сайте

08-07-2014 10:23 Вселенная Скачать торрент  

А где можно найти все предыдущие сезоны в таком же переводе и качестве?pb.wtf



08-07-2014 10:48 Вселенная Скачать торрент  

Действительно где бы найти остальные пять?pb.wtf



08-07-2014 13:43 Вселенная Скачать торрент  

hkr писал(а):

А где можно найти все предыдущие сезоны в таком же переводе и качестве?

Ктулху24 писал(а):

Действительно где бы найти остальные пять?

Здесь.pb.wtf



08-07-2014 20:52 Вселенная Скачать торрент  

El240781 писал(а):

hkr писал(а):

А где можно найти все предыдущие сезоны в таком же переводе и качестве?

Ктулху24 писал(а):

Действительно где бы найти остальные пять?

Здесь.

Я искал и через поиск нашло только последние 3. Можно ссылку? Спасибо заранее.pb.wtf



08-07-2014 22:29 Вселенная Скачать торрент  

hkr, Нашел ?pb.wtf



09-07-2014 09:15 Вселенная Скачать торрент  

09-07-2014 09:16 Вселенная Скачать торрент  

09-07-2014 09:20 Вселенная Скачать торрент  

    Дорогой пользователь! Огромная просьба, поблагодарите релизера, оцените раздачу и оставьте свои комментарий, если Вы скачали Вселенная через торрент бесплатно! Внесите свою лепту в развитие PiratBit!
    Комментировать посты могут только пользователи прошедшие не сложную регистрацию
    Показать сообщения:    

    Вселенная через торрент
    Скачать бесплатно Вселенная
    Вселенная скачать торрент
    Вселенная смотреть онлайн
    Cкачать фильм Вселенная бесплатно
    Вселенная скачать торрент в хорошем качестве
    Вселенная смотреть онлайн бесплатно в хорошем качестве


    Вы не можете начинать темы
    Вы не можете отвечать на сообщения
    Вы не можете редактировать свои сообщения
    Вы не можете удалять свои сообщения
    Вы не можете голосовать в опросах
    Вы не можете прикреплять файлы к сообщениям
    Вы можете скачивать файлы