новый адрес
Мега распродажа FORZA HORIZON 4 ULTIMATE+ВСЕ DLC+ОНЛАЙН всего за 499р. 349 руб. (супер цена). Внимание количество ограничено!!!

iTunes

1+1

iTunes

мы

iTunes

1

iTunes

Чернобыль

iTunes

Ральф против интернета

Лицензия

ПШазам

Лицензия

Игра престолов

Лицензия

30
pack

ВАЖНО

!!Акция!!

Alien_RageХит недели

RePack

Resident Evil 21

ИГРА 18+

pack

RePack

Metro:Exodus

!!Акция!!

Alien_Rage

RePack

fifa19

RePack

Assassins Creed: Odyssey

RePack

NEED FOR SPEED™ PAYBACK

3 сезон

9 сезон

Бесстыжие 9 сезон

Все сериалы

все сериалы на PB.wtf

RePack

FAR CRY 5
Ребята, катастрофически не хватает 1900р. для оплаты серверов за Октябрь (всвязи с блокировками трафик упал в 3 раза), 1-2р., выручайте.
  

Призраки в Коннектикуте 2: Тени прошлого / The Haunting in Connecticut 2: Ghosts of Georgia (Том Элкинс) [2012 г., ужасы, триллер, драма, HDRip, Дубляж, Лицензия] pb.wtf

Призраки в Коннектикуте 2: Тени прошлого через торрент pb.wtf

Размер: 2.05 GB | Добавлен: 5 лет 4 мес. назад | Торрент скачан:378 раз
Скачать  

07-07-2014 23:36 Призраки в Коннектикуте 2: Тени прошлого Скачать торрент  


Призраки в Коннектикуте 2: Тени прошлого / The Haunting in Connecticut 2: Ghosts of Georgia

Год выпуска: 2012
Жанр: ужасы, триллер, драма
Продолжительность: 101 мин. / 01:41
Перевод: Дубляж, Лицензия

Режиссер: Том Элкинс
Продюссер: Пол Брукс, Скотт Ниемейер, Леон Клэранс
Сценарий: Дэвид Коджшэлл

Бюджет: $1 074 850
Премьера в мире: 1 февраля 2013
IMDB 5.20 (8488)

В ролях: Эбигейл Спенсер, Эмили Элин Линд, Кэти Сакхофф, Чад Майкл Мюррэй, Грант Джеймс, Уэйн Пер, Лэнс Э. Николс, Джарен Митчелл, Сисели Тайсон, Сэм Полин
Описание: Девочка Хайди недавно переехала в Джорджию вместе со своими родителями. Однако жизнь на новом месте не задалась, так как ее начали терроризировать призраки. Вынужденные поверить в происходящее, родители пытаются выяснить причину паранормальных явлений.
Качество: HDRip
Формат: AVI
Видео кодек: XviD
Аудио кодек: AC3
Видео: MPEG-4 Visual, 2067 Kb/s, 720x304,23,976 кадра/сек
Аудио#1: English: AC3, 384 Kb/s (6 ch), 48,0 КГц
Аудио#2: Russian: AC3, 384 Kb/s (6 ch), 48,0 КГц

скриншот   скриншот   скриншот   скриншот   скриншот   скриншот   скриншот  

Format : AVI
Format/Info : Audio Video Interleave
Format profile : OpenDML
File size : 2.05 GiB
Duration : 1h 40mn
Overall bit rate : 2 907 Kbps
Writing application : VirtualDubMod 1.5.10.2 (build 2540/release)
Writing library : VirtualDubMod build 2540/release
Video #0
ID : 0
Format : MPEG-4 Visual
Format profile : Advanced Simple@L5
Format settings, BVOP : 2
Format settings, QPel : No
Format settings, GMC : No warppoints
Format settings, Matrix : Default (MPEG)
Codec ID : XVID
Codec ID/Hint : XviD
Duration : 1h 40mn
Bit rate : 2 057 Kbps
Width : 720 pixels
Height : 304 pixels
Display aspect ratio : 2.35:1
Frame rate : 23.976 fps
Color space : YUV
Chroma subsampling : 4:2:0
Bit depth : 8 bits
Scan type : Progressive
Compression mode : Lossy
Bits/(Pixel*Frame) : 0.392
Stream size : 1.45 GiB (71%)
Writing library : XviD 1.2.1 (UTC 2008-12-04)
Audio #1
ID : 1
Format : AC-3
Format/Info : Audio Coding 3
Mode extension : CM (complete main)
Format settings, Endianness : Big
Codec ID : 2000
Duration : 1h 40mn
Bit rate mode : Constant
Bit rate : 384 Kbps
Channel(s) : 6 channels
Channel positions : Front: L C R, Side: L R, LFE
Sampling rate : 48.0 KHz
Bit depth : 16 bits
Compression mode : Lossy
Stream size : 277 MiB (13%)
Alignment : Split accross interleaves
Interleave, duration : 42 ms (1.00 video frame)
Interleave, preload duration : 500 ms
Audio #2
ID : 2
Format : AC-3
Format/Info : Audio Coding 3
Mode extension : CM (complete main)
Format settings, Endianness : Big
Codec ID : 2000
Duration : 1h 40mn
Bit rate mode : Constant
Bit rate : 448 Kbps
Channel(s) : 6 channels
Channel positions : Front: L C R, Side: L R, LFE
Sampling rate : 48.0 KHz
Bit depth : 16 bits
Compression mode : Lossy
Stream size : 324 MiB (15%)
Alignment : Split accross interleaves
Interleave, duration : 42 ms (1.00 video frame)
Interleave, preload duration : 500 ms

pb.wtf



Скачать Призраки в Коннектикуте 2: Тени прошлого через торрент http://pic.kartinco.top/images/6/peylw.jpg Скачать фильм Призраки в Коннектикуте 2: Тени прошлого через торрент бесплантно в хорошем качестве Описание: Девочка Хайди недавно переехала в Джорджию вместе со своими родителями. Однако жизнь на новом месте не задалась, так как ее ... 9.1 10 25
Info! Золотая раздача, скачанное не засчитывается.
Торрент: Зарегистрирован [2014-07-07 23:36] · скачан: 378 раз
Статус: √ проверено
Размер: 2.05 GB
Как cкачать? Как скачать Призраки в Коннектикуте 2: Тени прошлого через торрент | qTorrent

% Раздел Тема Автор DL S | L
Фильмы 2013 [DVDrip, WEB-DLRip, HDrip] [ 1.45 GB ] Призраки в Коннектикуте 2: Тени прошлого / The Haunting in Connecticut 2: Ghosts of Georgia [2013 HDRip] diletant Скачать
2 | 0


>> Регистрируемся здесь <<






Отзывы и комментарии о схеме читаем и пишем здесь: ---> Отзывы и комментарии о схеме

Новые благодарочки в телеграм довольных пользователей:
скриншот   скриншот   скриншот   скриншот   скриншот
    Дорогой пользователь! Огромная просьба, поблагодарите релизера, оцените раздачу и оставьте свои комментарий, если Вы скачали Призраки в Коннектикуте 2: Тени прошлого через торрент бесплатно! Внесите свою лепту в развитие PiratBit!
    Комментировать посты могут только пользователи прошедшие не сложную регистрацию
    Показать сообщения:    

    Призраки в Коннектикуте 2: Тени прошлого через торрент
    Скачать бесплатно Призраки в Коннектикуте 2: Тени прошлого
    Призраки в Коннектикуте 2: Тени прошлого скачать торрент
    Призраки в Коннектикуте 2: Тени прошлого смотреть онлайн
    Cкачать фильм Призраки в Коннектикуте 2: Тени прошлого бесплатно
    Призраки в Коннектикуте 2: Тени прошлого скачать торрент в хорошем качестве
    Призраки в Коннектикуте 2: Тени прошлого смотреть онлайн бесплатно в хорошем качестве


    Вы не можете начинать темы
    Вы не можете отвечать на сообщения
    Вы не можете редактировать свои сообщения
    Вы не можете удалять свои сообщения
    Вы не можете голосовать в опросах
    Вы не можете прикреплять файлы к сообщениям
    Вы можете скачивать файлы