Ссылка на приватное зеркало нашего сайта всего за 1$. Внимание количество ограничено!!!

2 сезон

iTunes

1 сезон

1

iTunes

iTunes

iTunes

1 сезон

RePack

30

ИГРА 18+

pack

ВАЖНО

!!Акция!!

Alien_RageХит недели

RePack

MK11
pack

Забери бонус

RePack

jed

!!Акция!!

Alien_Rage

RePack

fifa19

RePack

Assassins Creed: Odyssey

RePack

NEED FOR SPEED™ PAYBACK

4 сезон

9 сезон

Бесстыжие 9 сезон

Все сериалы

все сериалы на PB.wtf

RePack

FAR CRY 5
  

Лесной патруль / Pelle Politibil på sporet [2013 г., мультфильм, WEB-DLRip, Дубляж, Лицензия] pb.wtf

Лесной патруль через торрент pb.wtf

Раздают: 1 [ 0 KB/s ]
Размер: 1.37 GB | Добавлен: 6 лет 3 мес. назад | Торрент скачан:1105 раз
Скачать  

08-07-2014 18:37 Лесной патруль Скачать торрент  

Лесной патруль / Pelle Politibil på sporet Год выпуска: 2013
Страна: Норвегия
Жанр: мультфильм
Продолжительность: 01:09:54
Перевод: Дубляж, Лицензия




Режиссер: Расмус А. Сивертсен









Роли озвучивали: Гард Б. Эйдсвольд, Лене Конгсвик Йохансен, Эмили Нордли, Хеге Шёен, Роберт Столтенберг, Бьорн Сундквист, Пернилла Серенсен




Описание: Из национального заповедника похищают главное его достояние - орла редкой породы. Но при похищении удается спастись его птенцу. Патрульная машина Плодди вместе с верными друзьями спешит на помощь. Им предстоит выяснить, кто же этот коварный похититель, а заодно и присмотреть за малышом, пока не найдется его мама.




Качество: WEB-DLRip
Формат: AVI
Видео кодек: XviD
Аудио кодек: AC3
Видео: XviD, 720x400 (16/9), 25.000 fps, 1 956 Kbps
Аудио 1: AC-3, 48.0 KHz, 6 ch, 448 Kbps, CBR
Аудио 2: AC-3, 48.0 KHz, 6 ch, 384 Kbps, CBR




скриншот   скриншот   скриншот  
General
Complete name : D:\Мои фильмы и мульты\Lesnoy.Patrulj.2013.D.WEBDLRip.1400Mb.avi
Format : AVI
Format/Info : Audio Video Interleave
File size : 1.37 GiB
Duration : 1h 9mn
Overall bit rate : 2 802 Kbps
Writing application : VirtualDubMod 1.5.10.2 (build 2540/release)
Writing library : VirtualDubMod build 2540/release

Video
ID : 0
Format : MPEG-4 Visual
Format profile : Advanced Simple@L5
Format settings, BVOP : Yes
Format settings, QPel : No
Format settings, GMC : No warppoints
Format settings, Matrix : Default (MPEG)
Codec ID : XVID
Codec ID/Hint : XviD
Duration : 1h 9mn
Bit rate : 1 956 Kbps
Width : 720 pixels
Height : 400 pixels
Display aspect ratio : 16:9
Frame rate : 25.000 fps
Color space : YUV
Chroma subsampling : 4:2:0
Bit depth : 8 bits
Scan type : Progressive
Compression mode : Lossy
Bits/(Pixel*Frame) : 0.272
Stream size : 977 MiB (70%)
Writing library : XviD 1.2.1 (UTC 2008-12-04)

Audio #1
ID : 1
Format : AC-3
Format/Info : Audio Coding 3
Mode extension : CM (complete main)
Format settings, Endianness : Big
Codec ID : 2000
Duration : 1h 9mn
Bit rate mode : Constant
Bit rate : 448 Kbps
Channel(s) : 6 channels
Channel positions : Front: L C R, Side: L R, LFE
Sampling rate : 48.0 KHz
Bit depth : 16 bits
Compression mode : Lossy
Stream size : 224 MiB (16%)
Alignment : Split accross interleaves
Interleave, duration : 40 ms (1.00 video frame)
Interleave, preload duration : 500 ms

Audio #2
ID : 2
Format : AC-3
Format/Info : Audio Coding 3
Mode extension : CM (complete main)
Format settings, Endianness : Big
Codec ID : 2000
Duration : 1h 9mn
Bit rate mode : Constant
Bit rate : 384 Kbps
Channel(s) : 6 channels
Channel positions : Front: L C R, Side: L R, LFE
Sampling rate : 48.0 KHz
Bit depth : 16 bits
Compression mode : Lossy
Stream size : 192 MiB (14%)
Alignment : Split accross interleaves
Interleave, duration : 40 ms (1.00 video frame)
Interleave, preload duration : 500 ms
pb.wtf



Скачать Лесной патруль через торрент http://i61.fastpic.ru/big/2014/0708/15/f17234ad193f79c3fe0bbcfcf9808115.png Скачать фильм Лесной патруль через торрент бесплантно в хорошем качестве Описание: Из национального заповедника похищают главное его достояние - орла редкой породы. Но при похищении удается спастись его птенцу. ... 10 10 29
Info! Золотая раздача, скачанное не засчитывается.
Торрент: Зарегистрирован [2014-07-08 18:37] · скачан: 1 105 раз
Статус: √ проверено
Размер: 1.37 GB
Как cкачать? Как скачать Лесной патруль через торрент | qTorrent

% Раздел Тема Автор DL S | L
Зарубежные Мультфильмы (WEB-DL 720p, 1080p) [ 1.62 GB ] Лесной патруль / Pelle Politibil på sporet [2013 мультфильм WEB-DL ] Anonymous Скачать
1 | 0

28-11-2019 20:33  

Отключить всю рекламу на сайте

    Дорогой пользователь! Огромная просьба, поблагодарите релизера, оцените раздачу и оставьте свои комментарий, если Вы скачали Лесной патруль через торрент бесплатно! Внесите свою лепту в развитие PiratBit!
    Комментировать посты могут только пользователи прошедшие не сложную регистрацию
    Показать сообщения:    

    Лесной патруль через торрент
    Скачать бесплатно Лесной патруль
    Лесной патруль скачать торрент
    Лесной патруль смотреть онлайн
    Cкачать фильм Лесной патруль бесплатно
    Лесной патруль скачать торрент в хорошем качестве
    Лесной патруль смотреть онлайн бесплатно в хорошем качестве


    Вы не можете начинать темы
    Вы не можете отвечать на сообщения
    Вы не можете редактировать свои сообщения
    Вы не можете удалять свои сообщения
    Вы не можете голосовать в опросах
    Вы не можете прикреплять файлы к сообщениям
    Вы можете скачивать файлы