>

7.4

iTunes

7.4

2 сезон

9.4

1 сезон

1

7.4

2 сезон

7.2

iTunes

6.0

MVO

13

6.1

iTunes

8.3

Пиратка

30

ULTIMATE

pack

9.9

Лицензия

ВАЖНО

ИГРА 18+

pack

7.3

RePack

MK11

7.7

RePack

jed

7.8

RePack

fifa19

8.5

RePack

RDR2

RePack

NEED FOR SPEED™ PAYBACK

1 сезон

9 сезон

Бесстыжие 9 сезон

Все сериалы

все сериалы на PB.wtf

RePack

FAR CRY 5

Anonymous, доброе утро, мы катастрофически не успеваем собрать деньги на оплату серверов, помогите нам пожалуйста 5,10,15р., для нас важна любая помощь . В качестве благодарности мы отключим Вам всю рекламу на сайте (укажите свой ник в строку Ваше имя)!

×
  
Magnet ссылка

Враг / Enemy (Дени Вильнёв / Denis Villeneuve) [2014 г., Триллер, детектив, BDRip-AVC] AVO (x3) pb.wtf

Враг через торрент pb.wtf

Размер: 2.18 GB | Добавлен: 7 лет 6 мес. назад | Торрент скачан:622 раза
Смотреть онлайн Враг | Скачать    Ребята, помогите собрать деньги на оплату серверов!!!

09-07-2014 11:31 Враг Скачать торрент  

Враг / Enemy
Год выпуска: 2014
Страна: Канада, Испания / Mecanismo Films, Rhombus Media, Roxbury Pictures
Жанр: Триллер, детектив
Продолжительность: 01:30:00
Перевод#1: Авторский [Д.Есарев]
Перевод#2: Авторский [Ю.Немахов]
Перевод#3: Авторский [А.Матвеев]
Субтитры: Русские, английские (Full + SDH)

Режиссер: Дени Вильнёв / Denis Villeneuve

В ролях: Джейк Джилленхол, Мелани Лоран, Сара Гадон, Изабелла Росселлини, Джошуа Пиис, Тим Пост, Кедар Браун, Дэррил Динн, Миша Хайстэд, Меган Манн

Описание: Взяв наугад кассету с фильмом в видеопрокате, парень с удивлением замечает в одном из эпизодов актёра, который является почти точной его копией, разве что на пару лет моложе. Вскоре желание найти своего двойника превращается для парня в настоящую навязчивую идею. Длительные бесплодные поиски, в конце концов, становятся причиной странных мистических событий, постепенно погружающих парня в пучину наваждения...



Качество: BDRip-AVC
Формат: MKV
Видео кодек: H.264
Аудио кодек: AC3
Видео: 1044x436 (2,40:1), 23,976 fps, 1637 Кbps, 0.150 bit/pixel
Аудио#1: 48 kHz, AC3 Dolby Digital, 3/2 (L,C,R,l,r) + LFE ch, 448.00 kbps | Д.Есарев
Аудио#2: 48 kHz, AC3 Dolby Digital, 3/2 (L,C,R,l,r) + LFE ch, 448.00 kbps | Ю.Немахов
Аудио#3: 48 kHz, AC3 Dolby Digital, 3/2 (L,C,R,l,r) + LFE ch, 448.00 kbps | А.Матвеев
Аудио#4: 48 kHz, AC3 Dolby Digital, 3/2 (L,C,R,l,r) + LFE ch, 448.00 kbps | ENG

Релиз группы:
Автор рипа: potroks





Общее
Уникальный идентификатор : 183265181407347594449348974188413595264 (0x89DF970E686B8589AB9B43BB60D02E80)
Полное имя : Vrag.2013.QUATER.BDRip.x264.-HELLYWOOD.mkv
Формат : Matroska
Версия формата : Version 4 / Version 2
Размер файла : 2,18 Гбайт
Продолжительность : 1 ч. 30 м.
Общий поток : 3432 Кбит/сек
Название фильма : HELLYWOOD - rip by potroks
Дата кодирования : UTC 2014-07-06 11:58:21
Программа кодирования : mkvmerge v5.9.0 ('On The Loose') built on Dec 15 2012 16:39:58
Библиотека кодирования : libebml v1.3.0 + libmatroska v1.4.0

Видео
Идентификатор : 1
Формат : AVC
Формат/Информация : Advanced Video Codec
Профиль формата : High@L4.1
Параметр CABAC формата : Да
Параметр ReFrames формата : 10 кадров
Идентификатор кодека : V_MPEG4/ISO/AVC
Продолжительность : 1 ч. 30 м.
Битрейт : 1637 Кбит/сек
Ширина : 1044 пикселя
Высота : 436 пикселей
Соотношение сторон : 2,40:1
Режим частоты кадров : Постоянный
Частота кадров : 23,976 кадра/сек
Цветовое пространство : YUV
Субдискретизация насыщенности : 4:2:0
Битовая глубина : 8 бит
Тип развёртки : Прогрессивная
Бит/(Пиксели*Кадры) : 0.150
Размер потока : 1021 Мбайт (46%)
Заголовок : Enemy
Библиотека кодирования : x264 core 130 r2273 b3065e6
Настройки программы : cabac=1 / ref=10 / deblock=1:-2:-1 / analyse=0x3:0x133 / me=umh / subme=11 / psy=1 / psy_rd=1.04:0.00 / mixed_ref=1 / me_range=48 / chroma_me=1 / trellis=2 / 8x8dct=1 / cqm=0 / deadzone=21,11 / fast_pskip=0 / chroma_qp_offset=-2 / threads=9 / lookahead_threads=6 / sliced_threads=0 / nr=0 / decimate=0 / interlaced=0 / bluray_compat=0 / constrained_intra=0 / bframes=11 / b_pyramid=2 / b_adapt=2 / b_bias=0 / direct=3 / weightb=1 / open_gop=0 / weightp=2 / keyint=250 / keyint_min=23 / scenecut=40 / intra_refresh=0 / rc_lookahead=60 / rc=2pass / mbtree=0 / bitrate=1637 / ratetol=1.0 / qcomp=0.70 / qpmin=0 / qpmax=69 / qpstep=4 / cplxblur=20.0 / qblur=0.5 / vbv_maxrate=50000 / vbv_bufsize=62500 / nal_hrd=none / ip_ratio=1.35 / pb_ratio=1.25 / aq=1:0.80
Язык : English
Default : Да
Forced : Нет

Аудио #1
Идентификатор : 2
Формат : AC-3
Формат/Информация : Audio Coding 3
Расширение режима : CM (complete main)
Параметр Endianness формата : Big
Идентификатор кодека : A_AC3
Продолжительность : 1 ч. 30 м.
Вид битрейта : Постоянный
Битрейт : 448 Кбит/сек
Каналы : 6 каналов
Расположение каналов : Front: L C R, Side: L R, LFE
Частота : 48,0 КГц
Битовая глубина : 16 бит
Метод сжатия : С потерями
Размер потока : 291 Мбайт (13%)
Заголовок : AVO | DD 5.1 @ 448 kbps - Д.Есарев
Язык : Russian
Default : Да
Forced : Да

Аудио #2
Идентификатор : 3
Формат : AC-3
Формат/Информация : Audio Coding 3
Расширение режима : CM (complete main)
Параметр Endianness формата : Big
Идентификатор кодека : A_AC3
Продолжительность : 1 ч. 30 м.
Вид битрейта : Постоянный
Битрейт : 448 Кбит/сек
Каналы : 6 каналов
Расположение каналов : Front: L C R, Side: L R, LFE
Частота : 48,0 КГц
Битовая глубина : 16 бит
Метод сжатия : С потерями
Размер потока : 291 Мбайт (13%)
Заголовок : AVO | DD 5.1 @ 448 kbps - Ю.Немахов
Язык : Russian
Default : Нет
Forced : Нет

Аудио #3
Идентификатор : 4
Формат : AC-3
Формат/Информация : Audio Coding 3
Расширение режима : CM (complete main)
Параметр Endianness формата : Big
Идентификатор кодека : A_AC3
Продолжительность : 1 ч. 30 м.
Вид битрейта : Постоянный
Битрейт : 448 Кбит/сек
Каналы : 6 каналов
Расположение каналов : Front: L C R, Side: L R, LFE
Частота : 48,0 КГц
Битовая глубина : 16 бит
Метод сжатия : С потерями
Размер потока : 291 Мбайт (13%)
Заголовок : AVO | DD 5.1 @ 448 kbps - А.Матвеев
Язык : Russian
Default : Нет
Forced : Нет

Аудио #4
Идентификатор : 5
Формат : AC-3
Формат/Информация : Audio Coding 3
Расширение режима : CM (complete main)
Параметр Endianness формата : Big
Идентификатор кодека : A_AC3
Продолжительность : 1 ч. 30 м.
Вид битрейта : Постоянный
Битрейт : 448 Кбит/сек
Каналы : 6 каналов
Расположение каналов : Front: L C R, Side: L R, LFE
Частота : 48,0 КГц
Битовая глубина : 16 бит
Метод сжатия : С потерями
Размер потока : 291 Мбайт (13%)
Заголовок : Original | DD 5.1 @ 448 kbps
Язык : English
Default : Нет
Forced : Нет

Текст #1
Идентификатор : 6
Формат : UTF-8
Идентификатор кодека : S_TEXT/UTF8
Идентификатор кодека/Информация : UTF-8 Plain Text
Язык : Russian
Default : Нет
Forced : Нет

Текст #2
Идентификатор : 7
Формат : UTF-8
Идентификатор кодека : S_TEXT/UTF8
Идентификатор кодека/Информация : UTF-8 Plain Text
Заголовок : SDH
Язык : English
Default : Нет
Forced : Нет

Текст #3
Идентификатор : 8
Формат : UTF-8
Идентификатор кодека : S_TEXT/UTF8
Идентификатор кодека/Информация : UTF-8 Plain Text
Язык : English
Default : Нет
Forced : Нет

Меню
00:00:00.000 : en:Chapter 01
00:04:57.589 : en:Chapter 02
00:09:20.393 : en:Chapter 03
00:15:45.778 : en:Chapter 04
00:26:24.708 : en:Chapter 05
00:30:58.565 : en:Chapter 06
00:35:43.600 : en:Chapter 07
00:42:11.779 : en:Chapter 08
00:48:55.683 : en:Chapter 09
00:52:51.043 : en:Chapter 10
00:55:15.979 : en:Chapter 11
00:59:19.639 : en:Chapter 12
01:06:33.072 : en:Chapter 13
01:10:08.579 : en:Chapter 14
01:15:10.881 : en:Chapter 15
01:23:17.326 : en:Chapter 16

pb.wtf



Скачать Враг через торрент https://pic.kartinco.top/new/img/2014-07/09/rt1u6v596z9djybpzyup24jzo.png Скачать, смотреть онлайн Враг бесплантно в хорошем качестве Описание: Взяв наугад кассету с фильмом в видеопрокате, парень с удивлением замечает в одном из эпизодов актёра, который является почти ... 9.3 10 12
Info! Золотая раздача, скачанное не засчитывается.
Торрент: Зарегистрирован [2014-07-09 11:31] · скачан: 622 раз
Статус: √ проверено
Размер: 2.18 GB
Как cкачать? Как скачать Враг через торрент | UTorrent

% Раздел Тема Автор DL S | L
? Оформление раздач (Кино, Видео и ТВ) [ 3.14 GB ] Враг государства / Enemy of the State [1998 BDRip-AVC 60 FPS ] alien2015 Скачать
1 | 0
Фильмы (BDRip, HDrip-AVC) (48-60 fps) [ 3.1 GB ] Враг у ворот / Enemy at the Gates [2001 военный история BDRip-AVC 60 FPS MVO] TimeCop Скачать
1 | 0
Фильмы 2019-2020 [DVDrip, WEB-DLRip, HDrip] (DUB, MVO) [ 2.05 GB ] Макс Фист / Заклятый враг / Archenemy [2020 HDRip-AVC] от MediaBit Lithuania Скачать
5 | 0
Фильмы 2019-2020 [DVDrip, WEB-DLRip, HDrip] (DUB, MVO) [ 1.42 GB ] Макс Фист / Заклятый враг / Archenemy [2020 BDRip] bober100 Скачать
2 | 0
Фильмы 2019-2020 [DVDrip, WEB-DLRip, HDrip] (DUB, MVO) [ 746 MB ] Макс Фист / Заклятый враг / Archenemy [2020 BDRip] bober100 Скачать
1 | 0
Фильмы (Blu-ray, BD-Remux, HDDVD) [ 15.77 GB ] Макс Фист / Заклятый враг / Archenemy [2020 BD Remux 1080p] bober100 Скачать
1 | 0
Фильмы [HD 720p, 1080p] (Хороший звук DUB, MVO) [ 10.93 GB ] Макс Фист / Заклятый враг / Archenemy [2020 BDRip 1080p] bober100 Скачать
1 | 0

28-11-2019 20:33  

Отключить всю рекламу на сайте

    Дорогой пользователь! Огромная просьба, поблагодарите релизера, оцените раздачу и оставьте свои комментарий, если Вы скачали Враг через торрент бесплатно!
    Комментировать посты могут только пользователи прошедшие не сложную регистрацию
    Показать сообщения:    

    Враг через торрент
    Скачать бесплатно Враг
    Враг скачать торрент
    Враг смотреть онлайн
    Cкачать фильм Враг бесплатно
    Враг скачать торрент в хорошем качестве
    Враг смотреть онлайн бесплатно в хорошем качестве


    Вы не можете начинать темы
    Вы не можете отвечать на сообщения
    Вы не можете редактировать свои сообщения
    Вы не можете удалять свои сообщения
    Вы не можете голосовать в опросах
    Вы не можете прикреплять файлы к сообщениям
    Вы можете скачивать файлы