Ссылка на приватное зеркало нашего сайта всего за 1$. Внимание количество ограничено!!!

2 сезон

iTunes

1 сезон

1

iTunes

iTunes

iTunes

1 сезон

RePack

30

ИГРА 18+

pack

ВАЖНО

!!Акция!!

Alien_RageХит недели

RePack

MK11
pack

Забери бонус

RePack

jed

!!Акция!!

Alien_Rage

RePack

fifa19

RePack

Assassins Creed: Odyssey

RePack

NEED FOR SPEED™ PAYBACK

4 сезон

9 сезон

Бесстыжие 9 сезон

Все сериалы

все сериалы на PB.wtf

RePack

FAR CRY 5
  

Нокдаун / Cinderella Man (Рон Ховард / Ron Howard) [2005, США, драма, мелодрама, биография, BDRip 1080p,Дубляж - [Лицензия] pb.wtf

Нокдаун через торрент pb.wtf

Размер: 19.63 GB | Добавлен: 6 лет 3 мес. назад | Торрент скачан:61 раз
Скачать  

10-07-2014 04:03 Нокдаун Скачать торрент  

Нокдаун / Cinderella Man

Год выпуска: 2005
Страна: США
Жанр: драма, мелодрама, биография, история, спорт
Продолжительность: 02:24:21
Перевод: Дубляж - [Лицензия]+MVO
Субтитры: Русский (Full), Английский (Full)
Режиссер: Рон Ховард / Ron Howard
В ролях: Рассел Кроу (Jim Braddock), Рене Зеллвегер (Mae Braddock), Пол Джаматти (Joe Gould), Крэйг Бирко (Max Baer), Пэдди Консидайн (Mike Wilson), Брюс МакГилл (Jimmy Johnston), Дэвид Хубанд (Ford Bond), Коннор Прайс (Jay Braddock), Эриель Уоллер (Rosemarie Braddock), Патрик Луис (Howard Braddock), Розмари ДеУитт (Sara), Линда Кэш (Lucille Gould)
Описание:
Потерпев несколько поражений кряду, подававший надежды боксер-тяжеловес Джим Брэддок вынужден бросить спорт. Во времена Великой депрессии Брэддок берется за любую работу, чтобы прокормить свою жену Мэй и детей. При этом он все еще надеется вернуться на ринг. И однажды ему предоставляется такой шанс. В последнюю минуту он заменяет другого боксера и выходит на поединок с претендентом на титул чемпиона мира.
Ко всеобщему изумлению, Брэддок побеждает уже в третьем раунде. Несмотря на то, что он весит меньше своих соперников и к тому же страдает от многочисленных травм, Джим продолжает драться и выигрывать. Апофеозом же его спортивной карьеры становится поединок с чемпионом мира Максом Бэром, убившим на ринге двух человек...
Рейтинг
kinopoisk.ru: 8.443 (68 486)
imdb.com: 8.00 (126 936)
MPAA: PG-13 - Детям до 13 лет просмотр не желателен
Качество: BDRip 1080p
Формат: MKV
Видео кодек: AVC
Аудио кодек: AC3/DTS
Видео: AVC, 1920x816 (2.35:1), 14586 kbps, 23,976 fps, 0,388 bpp
Аудио №1: русский / AC3 / 5.1 / 48 kHz / 384 kbps / 16 bit || |Дублированный| [R5]
Аудио №2: украинский / AC3 / 5.1 / 48 kHz / 640 kbps / 16 bit|Проф.многоголосый| [ICTV]
Аудио №3: русский / AC3 / 5.1 / 48 kHz / 448 kbps / 16 bit || |Проф.двухголосый| [Tycoon]
Аудио №4: русский / DTS / 5.1 / 48 kHz / 1510 kbps / 16 bit || |Авторский| [Ю. Немахов]
Аудио №5: английский / DTS / 5.1 / 48 kHz / 1510 kbps / 16 bit

General
Unique ID : 184943429835192377206753931816746158544 (0x8B22CF17976C531F8C01C5B86E1D09D0)
Complete name : D:\Торенты\Cinderella Man.2005.1080p.BDRip.mkv
Format : Matroska
Format version : Version 2
File size : 19.6 GiB
Duration : 2h 24mn
Overall bit rate : 19.5 Mbps
Movie name : Cinderella Man (2005)
Encoded date : UTC 2013-12-16 14:11:38
Writing application : mkvmerge v5.8.0 ('No Sleep / Pillow') built on Sep 2 2012 15:37:04
Writing library : libebml v1.2.3 + libmatroska v1.3.0
Attachment : Yes

Video
ID : 1
Format : AVC
Format/Info : Advanced Video Codec
Format profile : High@L4.1
Format settings, CABAC : Yes
Format settings, ReFrames : 5 frames
Muxing mode : Header stripping
Codec ID : V_MPEG4/ISO/AVC
Duration : 2h 24mn
Bit rate : 14.6 Mbps
Width : 1 920 pixels
Height : 816 pixels
Display aspect ratio : 2.35:1
Frame rate : 23.976 fps
Color space : YUV
Chroma subsampling : 4:2:0
Bit depth : 8 bits
Scan type : Progressive
Bits/(Pixel*Frame) : 0.388
Stream size : 14.7 GiB (75%)
Title : Cinderella Man (2005)
Writing library : x264 core 140 r2377+40 929f149 tMod [8-bit@4:2:0 X86_64]
Encoding settings : cabac=1 / ref=5 / deblock=1:-2:-2 / analyse=0x3:0x113 / me=umh / subme=11 / psy=1 / fade_compensate=0.00 / psy_rd=1.00:0.00 / mixed_ref=1 / me_range=48 / chroma_me=1 / trellis=2 / 8x8dct=1 / cqm=0 / deadzone=21,11 / fast_pskip=1 / chroma_qp_offset=-2 / threads=12 / lookahead_threads=2 / sliced_threads=0 / nr=0 / decimate=1 / interlaced=0 / bluray_compat=0 / constrained_intra=0 / fgo=0 / bframes=9 / b_pyramid=2 / b_adapt=2 / b_bias=0 / direct=3 / weightb=1 / open_gop=0 / weightp=2 / keyint=250 / keyint_min=23 / scenecut=40 / intra_refresh=0 / rc_lookahead=60 / rc=crf / mbtree=0 / crf=18.0000 / qcomp=0.60 / qpmin=0:0:0 / qpmax=69:69:69 / qpstep=4 / vbv_maxrate=62500 / vbv_bufsize=78125 / crf_max=0.0 / nal_hrd=none / filler=0 / ip_ratio=1.40 / pb_ratio=1.30 / aq=4:0.80 / aq-sensitivity=11.00 / aq-factor=1.00:1.00:1.00 / aq2=1:0.60 / aq2-sensitivity=9.00 / aq2-factor=1.00:1.00:1.00 / aq3=1:[0.60:0.60]:[0.60:0.60]:[0.60:0.60]:[0.60:0.60] / aq3-sensitivity=10.00 / aq3-factor=[1.00:1.00]:[1.00:1.00]:[1.00:1.00] / aq3-boundary=192:64:24
Language : English
Default : Yes
Forced : No
Color primaries : BT.709-5, BT.1361, IEC 61966-2-4, SMPTE RP177
Transfer characteristics : BT.709-5, BT.1361
Matrix coefficients : BT.709-5, BT.1361, IEC 61966-2-4 709, SMPTE RP177

Audio #1
ID : 2
Format : AC-3
Format/Info : Audio Coding 3
Mode extension : CM (complete main)
Muxing mode : Header stripping
Codec ID : A_AC3
Duration : 2h 24mn
Bit rate mode : Constant
Bit rate : 384 Kbps
Channel(s) : 6 channels
Channel positions : Front: L C R, Side: L R, LFE
Sampling rate : 48.0 KHz
Bit depth : 16 bits
Compression mode : Lossy
Stream size : 396 MiB (2%)
Title : R5
Language : Russian
Default : Yes
Forced : No

Audio #2
ID : 3
Format : AC-3
Format/Info : Audio Coding 3
Mode extension : CM (complete main)
Muxing mode : Header stripping
Codec ID : A_AC3
Duration : 2h 24mn
Bit rate mode : Constant
Bit rate : 640 Kbps
Channel(s) : 6 channels
Channel positions : Front: L C R, Side: L R, LFE
Sampling rate : 48.0 KHz
Bit depth : 16 bits
Compression mode : Lossy
Stream size : 661 MiB (3%)
Title : ICTV
Language : Ukrainian
Default : No
Forced : No

Audio #3
ID : 4
Format : AC-3
Format/Info : Audio Coding 3
Mode extension : CM (complete main)
Muxing mode : Header stripping
Codec ID : A_AC3
Duration : 2h 24mn
Bit rate mode : Constant
Bit rate : 448 Kbps
Channel(s) : 6 channels
Channel positions : Front: L C R, Side: L R, LFE
Sampling rate : 48.0 KHz
Bit depth : 16 bits
Compression mode : Lossy
Stream size : 463 MiB (2%)
Title : Tycoon
Language : Russian
Default : No
Forced : No

Audio #4
ID : 5
Format : DTS
Format/Info : Digital Theater Systems
Muxing mode : Header stripping
Codec ID : A_DTS
Duration : 2h 24mn
Bit rate mode : Constant
Bit rate : 1 510 Kbps
Channel(s) : 6 channels
Channel positions : Front: L C R, Side: L R, LFE
Sampling rate : 48.0 KHz
Bit depth : 16 bits
Compression mode : Lossy
Stream size : 1.52 GiB (8%)
Title : Немахов
Language : Russian
Default : No
Forced : No

Audio #5
ID : 6
Format : DTS
Format/Info : Digital Theater Systems
Muxing mode : Header stripping
Codec ID : A_DTS
Duration : 2h 24mn
Bit rate mode : Constant
Bit rate : 1 510 Kbps
Channel(s) : 6 channels
Channel positions : Front: L C R, Side: L R, LFE
Sampling rate : 48.0 KHz
Bit depth : 16 bits
Compression mode : Lossy
Stream size : 1.52 GiB (8%)
Title : Original
Language : English
Default : No
Forced : No

Text #1
ID : 7
Format : UTF-8
Codec ID : S_TEXT/UTF8
Codec ID/Info : UTF-8 Plain Text
Title : Full
Language : Russian
Default : No
Forced : No

Text #2
ID : 8
Format : UTF-8
Codec ID : S_TEXT/UTF8
Codec ID/Info : UTF-8 Plain Text
Language : English
Default : No
Forced : No

Menu
00:00:00.000 : en:The Next Champ
00:08:00.021 : en:Past Due
00:16:23.023 : en:Washed-Up
00:23:22.818 : en:Decommisioned
00:28:37.382 : en:Cut Off
00:38:53.039 : en:Emergency Relief
00:44:00.179 : en:One Last Chance
00:49:00.854 : en:Going in Hungry
00:58:43.686 : en:Sizing Up the Champ
01:02:53.186 : en:Back to Even
01:10:40.694 : en:Getting Serious
01:14:48.275 : en:Don't Back Down
01:22:51.299 : en:Count Your Blessings
01:28:17.000 : en:Know What You're Fighting For
01:36:17.938 : en:Giving Hope
01:40:44.163 : en:Find a Way Out
01:44:23.799 : en:Tremendous Underdog
01:54:34.742 : en:The Main Event
02:04:41.807 : en:Championship Round
02:17:43.380 : en:End Credits
pb.wtf



Скачать Нокдаун через торрент http://i66.fastpic.ru/big/2014/0710/82/2b59bcc4b5c41e87b96c10f87f5efc82.png Скачать фильм Нокдаун через торрент бесплантно в хорошем качестве Описание: Потерпев несколько поражений кряду, подававший надежды боксер-тяжеловес Джим Брэддок вынужден бросить спорт. Во времена Великой ... 10 10 8
Info! Золотая раздача, скачанное не засчитывается.
Торрент: Зарегистрирован [2014-07-10 04:03] · скачан: 61 раз
Статус: √ проверено
Размер: 19.63 GB
Как cкачать? Как скачать Нокдаун через торрент | qTorrent

% Раздел Тема Автор DL S | L
Фильмы [HD 720p, 1080p] (Хороший звук DUB, MVO) [ 22.06 GB ] Нокдаун / Cinderella Man [2005 биография BDRip 1080p] DUB [] +2xAVO+MVO bober100 Скачать
1 | 0
Фильмы [HD 720p, 1080p] (Хороший звук DUB, MVO) [ 10.14 GB ] Нокдаун / Cinderella Man [2005 биография BDRip 720p] Dub + DVO + AVO + Subs + MVO Ukr + Original Eng -Lexx- Скачать
1 | 0
Фильмы 2001-2005 [ 2.41 GB ] Нокдаун / Cinderella Man [2005 биография HDRip-AVC] DUB + DVO + Original + Sub -=Cherry=- Скачать
2 | 0
Фильмы 2001-2005 [ 1.46 GB ] Нокдаун / Cinderella Man [2005 биография HDRip] yrgent9032 Скачать
1 | 0
Фильмы 2001-2005 [ 1.46 GB ] Нокдаун / Cinderella Man [2005 биография HDRip] NarutoSasuke Скачать
1 | 0

28-11-2019 20:33  

Отключить всю рекламу на сайте

    Дорогой пользователь! Огромная просьба, поблагодарите релизера, оцените раздачу и оставьте свои комментарий, если Вы скачали Нокдаун через торрент бесплатно! Внесите свою лепту в развитие PiratBit!
    Комментировать посты могут только пользователи прошедшие не сложную регистрацию
    Показать сообщения:    

    Нокдаун через торрент
    Скачать бесплатно Нокдаун
    Нокдаун скачать торрент
    Нокдаун смотреть онлайн
    Cкачать фильм Нокдаун бесплатно
    Нокдаун скачать торрент в хорошем качестве
    Нокдаун смотреть онлайн бесплатно в хорошем качестве


    Вы не можете начинать темы
    Вы не можете отвечать на сообщения
    Вы не можете редактировать свои сообщения
    Вы не можете удалять свои сообщения
    Вы не можете голосовать в опросах
    Вы не можете прикреплять файлы к сообщениям
    Вы можете скачивать файлы