2 сезон

iTunes

MVO

1

2 сезон

iTunes

iTunes

1 сезон

RePack

30

Ultimate

ВАЖНО

ИГРА 18+

pack

RePack

MK11
pack

Легкие деньги

RePack

jed

RePack

fifa19

RePack

RDR2

RePack

NEED FOR SPEED™ PAYBACK

4 сезон

9 сезон

Бесстыжие 9 сезон

Все сериалы

все сериалы на PB.wtf

RePack

FAR CRY 5

Anonymous, добрый вечер, мы не успеваем собрать деньги на оплату серверов за декабрь и январь, помогите нам пожалуйста в это трудное время. В качестве благодарности мы отключим Вам всю рекламу на сайте (укажите свой ник в строку Ваше имя)!

×
  
Magnet ссылка

Принцесса и нищий / Il principe abusivo (Алессандро Сиани / Alessandro Siani) [ 2013 , Италия , комедия , HDRip ] MVO pb.wtf

Принцесса и нищий через торрент pb.wtf

Размер: 1.46 GB | Добавлен: 6 лет 6 мес. назад | Торрент скачан:671 раз
Скачать  

10-07-2014 09:16 Принцесса и нищий Скачать торрент  

Принцесса и нищий / Il principe abusivo«Дуракам везет»
Год выпуска: 2013
Страна: Италия
Жанр: комедия
Продолжительность: 01:41:54
Перевод: Профессиональный (многоголосый, закадровый)
Субтитры: Нет
Режиссер: Алессандро Сиани / Alessandro Siani
Сценарий: Алессандро Сиани / Alessandro Siani, Фабио Бонифаччи / Fabio Bonifacci
Продюсер: Марко Кименц / Marco Chimenz, Джованни Стабилини / Giovanni Stabilini, Риккардо Тоцци / Riccardo Tozzi, Франческа Лонгарди / Francesca Longardi
Композитор: Умберто Скипионе / Umberto Scipione
В ролях:
Алессандро Сиани (Antonio), Кристиан Де Сика (Anastasio), Сара Фельбербаум (Principessa Letizia), Серена Аутьери (Jessica), Марко Мессери (Re), Raffaele Musella (Pino), Алан Капелли Гетц (Gherez), Сальваторе Мистиконе (Professor Ruotolo), Нэлло Иорио (Ciro), Августо Форнари (Fotografo), Джизелла Софио (Anziana Contessa), Серджо Грациани (Anziano Conte)
Мировая премьера: 14 февраля 2013
Описание:
Что делать, если ты принцесса маленького европейского княжества, если твой отец увлечен только эротикой в интернете, а о тебе не пишет пресса, потому что ты занимаешься открытием ветеринарных лечебниц? Правильно! Устроить небольшой скандальчик! Или очень большой скандал! Принцесса по совету дворецкого находит самого никчемного жителя княжества, молодого балбеса Антонио и притворяется, что влюбилась в него! Они гуляют по улицам, ужинают в ресторане, а специально предупрежденные папарацци снимают их! Это скандал! Принцесса выходит замуж за нищего. Принцесса добилась своего, но что теперь делать с Антонио?
Рейтинг
imdb.com: 5.30 (644)
Качество: HDRip
Формат: AVI
Видео кодек: XviD
Аудио кодек: AC3
Видео: 1847 Кбит/сек, 720*304 (2,35:1), в 24,000 кадра/сек, MPEG-4 Visual (XviD)
Аудио: 192 Кбит/сек, 48,0 КГц, 16 бит, 2 канала, AC-3
Общее
Полное имя : D:\Фильмы\Принцесса_нищий.avi
Формат : AVI
Формат/Информация : Audio Video Interleave
Размер файла : 1,46 Гбайт
Продолжительность : 1 ч. 41 м.
Общий поток : 2049 Кбит/сек
Программа кодирования : VirtualDubMod 1.5.10.2 (build 2540/release)
Библиотека кодирования : VirtualDubMod build 2540/release

Видео
Идентификатор : 0
Формат : MPEG-4 Visual
Профиль формата : Advanced Simple@L5
Параметр BVOP формата : 2
Параметр QPel формата : Нет
Параметр GMC формата : Без точки перехода
Параметр матрицы формата : Default (MPEG)
Идентификатор кодека : XVID
Идентификатор кодека/Подсказка : XviD
Продолжительность : 1 ч. 41 м.
Битрейт : 1847 Кбит/сек
Ширина : 720 пикселей
Высота : 304 пикселя
Соотношение сторон : 2,35:1
Частота кадров : 24,000 кадра/сек
Цветовое пространство : YUV
Субдискретизация насыщенности : 4:2:0
Битовая глубина : 8 бит
Тип развёртки : Прогрессивная
Метод сжатия : С потерями
Бит/(Пиксели*Кадры) : 0.352
Размер потока : 1,31 Гбайт (90%)
Библиотека кодирования : XviD 1.2.1 (UTC 2008-12-04)

Аудио
Идентификатор : 1
Формат : AC-3
Формат/Информация : Audio Coding 3
Расширение режима : CM (complete main)
Параметр Endianness формата : Big
Идентификатор кодека : 2000
Продолжительность : 1 ч. 41 м.
Вид битрейта : Постоянный
Битрейт : 192 Кбит/сек
Каналы : 2 канала
Расположение каналов : Front: L R
Частота : 48,0 КГц
Битовая глубина : 16 бит
Метод сжатия : С потерями
Размер потока : 140 Мбайт (9%)
Выравнивание : Разделение по промежуткам
Продолжительность промежутка : 42 мс. (1,00 видеокадр)
Время предзагрузки промежутка : 500 мс.

скриншот   скриншот   скриншот   скриншот   скриншот   скриншот   скриншот   скриншот   скриншот   скриншот  

pb.wtf



Скачать Принцесса и нищий через торрент http://pic.kartinco.top/images/6/vjisn.jpg Скачать фильм Принцесса и нищий через торрент бесплантно в хорошем качестве Описание:Что делать, если ты принцесса маленького европейского княжества, если твой отец увлечен только эротикой в интернете, а о тебе не ... 9.1 10 23
Торрент: Зарегистрирован [2014-07-10 09:16] · скачан: 671 раз
Статус: √ проверено
Размер: 1.46 GB
Как cкачать? Как скачать Принцесса и нищий через торрент | UTorrent

28-11-2019 20:33  

Отключить всю рекламу на сайте

10-07-2014 13:48 Принцесса и нищий Скачать торрент  

Ох уж эти беззаботные итальянцы!Спасибо-забираю...pb.wtf



10-07-2014 14:46 Принцесса и нищий Скачать торрент  

.

Цитата:

Сара Фельбербаум (Principessa Letizia)

http://www.qnm.it/bellezze/showgirls_straniere/sarah_felberbaum/pb.wtf



11-07-2014 08:03 Принцесса и нищий Скачать торрент  

Stopper68 писал(а):

Ох уж эти беззаботные итальянцы!Спасибо-забираю...

После введения EVRO, не такие уж беззаботныеpb.wtf



    Дорогой пользователь! Огромная просьба, поблагодарите релизера, оцените раздачу и оставьте свои комментарий, если Вы скачали Принцесса и нищий через торрент бесплатно! Внесите свою лепту в развитие PiratBit!
    Комментировать посты могут только пользователи прошедшие не сложную регистрацию
    Показать сообщения:    

    Принцесса и нищий через торрент
    Скачать бесплатно Принцесса и нищий
    Принцесса и нищий скачать торрент
    Принцесса и нищий смотреть онлайн
    Cкачать фильм Принцесса и нищий бесплатно
    Принцесса и нищий скачать торрент в хорошем качестве
    Принцесса и нищий смотреть онлайн бесплатно в хорошем качестве


    Вы не можете начинать темы
    Вы не можете отвечать на сообщения
    Вы не можете редактировать свои сообщения
    Вы не можете удалять свои сообщения
    Вы не можете голосовать в опросах
    Вы не можете прикреплять файлы к сообщениям
    Вы можете скачивать файлы