Ссылка на приватное зеркало нашего сайта всего за 1$. Внимание количество ограничено!!!

2 сезон

iTunes

1 сезон

1

iTunes

iTunes

iTunes

1 сезон

RePack

30

ИГРА 18+

pack

ВАЖНО

!!Акция!!

Alien_RageХит недели

RePack

MK11
pack

Забери бонус

RePack

jed

!!Акция!!

Alien_Rage

RePack

fifa19

RePack

Assassins Creed: Odyssey

RePack

NEED FOR SPEED™ PAYBACK

4 сезон

9 сезон

Бесстыжие 9 сезон

Все сериалы

все сериалы на PB.wtf

RePack

FAR CRY 5
  

Иван Сила (Виктор Андриенко, Игорь Письменный) [2013, Украина, приключения, SATRip,Любительский (одноголосый) pb.wtf

Иван Сила через торрент pb.wtf

Размер: 1.37 GB | Добавлен: 6 лет 3 мес. назад | Торрент скачан:569 раз
Скачать  

10-07-2014 16:15 Иван Сила Скачать торрент  


Иван Сила
«Правда всегда победит»

Год выпуска: 2013
Страна: Украина
Жанр: драма, приключения
Продолжительность:01:20:51
Перевод:Любительский (одноголосый)- По переводу субтитров: DEDochok

Субтитры: Нет
Режиссер:Виктор Андриенко, Игорь Письменный

  • В ролях:

    Дмитрий Халаджи (Иван Сила), Виктор Андриенко (Фикса), Ольга Сумская (Аделия), Игорь Письменный (Пандорский), Василий Вирастюк, Вячеслав Гиндин (доктор Новак), Иванна Сахно (Милка), Богдан Бенюк (Ковальский), Борис Барский (клоун), Владимир Комаров (клоун), Леонид Шевченко

  • Описание:
    Прототипом главного героя фильма стал цирковой украинский силач Иван Фирцак, которого в 1928 году признали самым сильным человеком планеты. На пике своей карьеры, после того как в 1928 году он прекратил выступать за границей и вернулся на родину. Фильм воспроизводит отдельные страницы жизни молодого Ивана.

  • Мировая премьера:3 октября 2013


      Качество: SATRip
      Формат:AVI
      Видео кодек:XviD
      Аудио кодек:MP3
      Видео: XviD, 720x304 (2.35:1), 2218 kbps, 25 fps, 0,405 bpp
      Аудио: MP3 / 2.0 / 48 kHz / 192 kbps /


    Код:

    General
    Complete name                            : D:\Торенты\Иван Сила.2014.avi
    Format                                   : AVI
    Format/Info                              : Audio Video Interleave
    File size                                : 1.37 GiB
    Duration                                 : 1h 20mn
    Overall bit rate                         : 2 421 Kbps
    Writing application                      : VirtualDubMod 1.5.10.2 (build 2540/release)
    Writing library                          : VirtualDubMod build 2540/release

    Video
    ID                                       : 0
    Format                                   : MPEG-4 Visual
    Format profile                           : Advanced Simple@L5
    Format settings, BVOP                    : 1
    Format settings, QPel                    : No
    Format settings, GMC                     : No warppoints
    Format settings, Matrix                  : Default (MPEG)
    Codec ID                                 : XVID
    Codec ID/Hint                            : XviD
    Duration                                 : 1h 20mn
    Bit rate                                 : 2 219 Kbps
    Width                                    : 720 pixels
    Height                                   : 304 pixels
    Display aspect ratio                     : 2.35:1
    Frame rate                               : 25.000 fps
    Color space                              : YUV
    Chroma subsampling                       : 4:2:0
    Bit depth                                : 8 bits
    Scan type                                : Progressive
    Compression mode                         : Lossy
    Bits/(Pixel*Frame)                       : 0.405
    Stream size                              : 1.25 GiB (92%)
    Writing library                          : XviD 1.2.1 (UTC 2008-12-04)

    Audio
    ID                                       : 1
    Format                                   : MPEG Audio
    Format version                           : Version 1
    Format profile                           : Layer 3
    Mode                                     : Joint stereo
    Mode extension                           : MS Stereo
    Codec ID                                 : 55
    Codec ID/Hint                            : MP3
    Duration                                 : 1h 20mn
    Bit rate mode                            : Constant
    Bit rate                                 : 192 Kbps
    Channel(s)                               : 2 channels
    Sampling rate                            : 48.0 KHz
    Compression mode                         : Lossy
    Stream size                              : 111 MiB (8%)
    Alignment                                : Aligned on interleaves
    Interleave, duration                     : 40 ms (1.00 video frame)
    Interleave, preload duration             : 504 ms

    Скриншоты:

    Каталог Новинок (Фильмы-трейлеры, Игры, Сериалы, Мультфильмы)

    © Оформление by Raven
    pb.wtf



  • Скачать Иван Сила через торрент http://pic.kartinco.top/images/6/stazu.jpg Скачать фильм Иван Сила через торрент бесплантно в хорошем качестве Описание:Протоом главного героя фильма стал цирковой украинский силач Иван Фирцак, которого в 1928 году признали самым сильным человеком ... 8.3 10 23
    Info! Золотая раздача, скачанное не засчитывается.
    Торрент: Зарегистрирован [2014-07-10 16:15] · скачан: 569 раз
    Статус: √ проверено
    Размер: 1.37 GB
    Как cкачать? Как скачать Иван Сила через торрент | qTorrent

    % Раздел Тема Автор DL S | L
    National Geographic [ 1.18 GB ] National Geographic: Инстинкт выживания. Как остаться в живых / Primal survivor. Ultimate Guide [2015 ДокументальныйDVB ] Armstrong Скачать
    1 | 1
    Наши сериалы [ 2.44 GB ] Сила обстоятельств / Серии: 1-4 из 4 [2018 Мело SATRip] bober100 Скачать
    1 | 0
    Разное [ 509 MB ] Ильин Иван Александрович - О сопротивлении злу силою. Основное нравственное противоречие в [2005 MP3 128 kbps] metanoia Скачать
    1 | 0
    Документальные фильмы и телепередачи [ 352 MB ] Трагедия силача. Иван Поддубный [2006 документальный биография история SATRip] shuller Скачать
    1 | 0

    28-11-2019 20:33  

    Отключить всю рекламу на сайте

      Дорогой пользователь! Огромная просьба, поблагодарите релизера, оцените раздачу и оставьте свои комментарий, если Вы скачали Иван Сила через торрент бесплатно! Внесите свою лепту в развитие PiratBit!
      Комментировать посты могут только пользователи прошедшие не сложную регистрацию
      Показать сообщения:    

      Иван Сила через торрент
      Скачать бесплатно Иван Сила
      Иван Сила скачать торрент
      Иван Сила смотреть онлайн
      Cкачать фильм Иван Сила бесплатно
      Иван Сила скачать торрент в хорошем качестве
      Иван Сила смотреть онлайн бесплатно в хорошем качестве


      Вы не можете начинать темы
      Вы не можете отвечать на сообщения
      Вы не можете редактировать свои сообщения
      Вы не можете удалять свои сообщения
      Вы не можете голосовать в опросах
      Вы не можете прикреплять файлы к сообщениям
      Вы можете скачивать файлы